<?xml version="1.0" standalone="no"?>
<!DOCTYPE svg PUBLIC "-//W3C//DTD SVG 1.1//EN" "http://www.w3.org/Graphics/SVG/1.1/DTD/svg11.dtd" >
<svg xmlns="http://www.w3.org/2000/svg" xmlns:xlink="http://www.w3.org/1999/xlink" version="1.1">
<metadata>
Created by FontForge 20190801 at Mon Nov 14 18:33:10 2011
 By root
Copyright (c) 2011 by Brian J. Bonislawsky DBA Astigmatic (AOETI) (astigma@astigmatic.com), with ReservedFont Name "Fondamento"
</metadata>
<defs>
<font id="Fondamento-Regular" horiz-adv-x="1102" >
  <font-face 
    font-family="Fondamento"
    font-weight="400"
    font-stretch="normal"
    units-per-em="2048"
    panose-1="3 2 5 5 0 0 0 2 0 4"
    ascent="1638"
    descent="-410"
    x-height="969"
    cap-height="1439"
    bbox="-466 -774 2772 2060"
    underline-thickness="20"
    underline-position="-133"
    unicode-range="U+0020-FB02"
  />
<missing-glyph horiz-adv-x="500" 
 />
    <glyph glyph-name="fi" unicode="fi" horiz-adv-x="1324" 
d="M382 310q0 -100 -63 -174h294q-12 -9 -39 -31.5t-58 -46.5q-77 -58 -97 -58h-315q50 40 63 79q21 58 21 127v651h-126l126 99q0 207 10.5 273t29.5 113t54 91q66 84 218 184q94 63 232 87q41 8 97.5 8t113.5 -24.5t94.5 -57.5t56 -66t18.5 -46t-13 -29t-33.5 -34
t-45.5 -37t-49 -34q-56 -35 -75 -35q20 20 20 30t-7 28.5t-23 40.5t-42 45t-64 41q-87 43 -205 43q-64 0 -106 -13q-82 -114 -86 -336q-1 -60 -1 -115v-120h375q-14 -2 -67 -49q-100 -87 -128 -87h-180v-547zM1327 123q-30 -24 -58.5 -49t-59.5 -46q-72 -47 -138 -47
q-62 0 -87 19q-51 38 -51 140v474q0 108 -39 140q-18 15 -39 15t-35.5 -2.5t-29.5 -5.5t-31 -6q50 39 93.5 70t74.5 52t86 59.5t114 69.5v-706q0 -102 13 -129q28 -55 124 -55q26 0 63 7z" />
    <glyph glyph-name="fl" unicode="fl" horiz-adv-x="1298" 
d="M382 310q0 -100 -63 -174h294q-12 -9 -39 -31.5t-58 -46.5q-77 -58 -97 -58h-315q50 40 63 79q21 58 21 127v651h-126l126 99q0 207 10.5 273t29.5 113t54 91q66 84 218 184q142 95 270 95q72 0 165 -38q47 -19 47 -39q0 -1 -2 -7q48 25 76 38.5t46 22.5v-1380
q0 -41 0.5 -76t11.5 -61q25 -54 126 -54q32 0 62 6q-33 -26 -63 -52t-62 -46q-71 -46 -147 -46q-110 0 -120 152q-2 41 -2 80v1070q0 196 -134 196q-6 -1 -13 -1t-13.5 -1t-13.5 -2l49 34q-24 35 -165 63q-31 6 -50 6q-57 0 -99 -13q-82 -114 -86 -336q-1 -60 -1 -115v-120
h375q-14 -2 -67 -49q-100 -87 -128 -87h-180v-547z" />
    <glyph glyph-name=".notdef" horiz-adv-x="500" 
 />
    <glyph glyph-name=".null" horiz-adv-x="0" 
 />
    <glyph glyph-name="nonmarkingreturn" horiz-adv-x="500" 
 />
    <glyph glyph-name="space" unicode=" " horiz-adv-x="500" 
 />
    <glyph glyph-name="exclam" unicode="!" horiz-adv-x="547" 
d="M342 1465q42 0 42 -93q0 -24 -6 -123q-11 -190 -20.5 -374.5t-23.5 -441.5q-1 -12 -47 -36q-92 -48 -99 -59l-3 942q0 56 -32 56q-12 0 -64 -48l-1 13q112 99 221 154q20 10 33 10zM415 106l-194 -136l-105 167l195 136z" />
    <glyph glyph-name="quotedbl" unicode="&#x22;" horiz-adv-x="699" 
d="M579 1465q42 0 42 -93q0 -92 -50 -222q-16 -41 -51.5 -91.5t-55.5 -78.5q-2 15 -4.5 47t-7 72t-11 82.5t-16.5 77.5q-23 79 -57 79q64 80 153 115q30 12 58 12zM279 1465q42 0 42 -93q0 -92 -50 -222q-16 -41 -51.5 -91.5t-55.5 -78.5q-2 15 -4.5 47t-7 72t-11 82.5
t-16.5 77.5q-23 79 -57 79q64 80 153 115q30 12 58 12z" />
    <glyph glyph-name="numbersign" unicode="#" horiz-adv-x="1074" 
d="M1011 753q-14 -3 -66 -49q-100 -87 -128 -87h-68q-11 -50 -23 -99.5t-24 -100.5h250q-14 -3 -66 -49q-100 -87 -128 -87h-89q-14 -60 -24 -102q-30 -127 -48.5 -143t-39 -29t-44 -26t-43.5 -25q-48 -26 -53 -36q23 91 46 180.5t45 180.5h-95q-13 -52 -27.5 -113.5
t-25 -92t-25.5 -43t-35.5 -25.5t-43.5 -26t-44 -25q-47 -26 -52 -36q48 174 93 361h-197q16 2 63 44.5t66 56.5q45 35 65 35h35q15 65 45 200h-215q13 2 62 44.5t68 56.5q45 35 65 35h48q18 88 24 121t8 50t6 30.5t18.5 26t35 25.5t44.5 26.5t44 25.5q49 29 53 36
q-22 -125 -67 -341h90q7 35 13.5 68.5t11.5 59.5t7.5 43t6.5 30.5t18.5 26t35 25.5t44.5 26.5t45 25.5q48 29 52 36q-34 -182 -69 -341h232zM585 617h-91q-11 -51 -23 -100t-24 -100h93q11 51 22.5 100.5t22.5 99.5z" />
    <glyph glyph-name="dollar" unicode="$" horiz-adv-x="1067" 
d="M290 428q-26 -23 -26 -46.5t16.5 -39t42.5 -27t58.5 -19t63.5 -12.5q59 -8 96 -8t77 1t74 14q79 30 79 134q0 134 -198 191q-56 16 -115 31t-115 32t-100 43q-98 58 -98 157q0 121 175 257q59 47 128 86v168q0 18 61 53t92.5 53t40.5 30v-239q14 -1 27 -1h27
q61 0 127 -15t93 -26q61 -25 61 -55q0 -61 -123 -138q-15 -10 -42 -23q-46 -24 -58 -40q27 42 27 65q0 58 -181 87q-62 10 -90 10t-57 -2.5t-54 -15.5q-59 -31 -59 -113q0 -103 96 -162q52 -32 131 -47t129 -27q121 -29 171 -67t74.5 -74.5t24.5 -88.5t-33.5 -106
t-82.5 -101q-95 -90 -208 -144v-168q-82 -68 -107 -82l-40 -23q-36 -20 -47 -31v239h-100q-129 0 -218 42q-58 27 -58 65q0 33 33 59.5t57.5 41.5t49.5 30q63 37 78 52z" />
    <glyph glyph-name="percent" unicode="%" horiz-adv-x="1940" 
d="M1871 523q0 -240 -226 -408q-29 -21 -61.5 -45t-67.5 -44q-153 -85 -284 -13q-115 63 -156 203q-20 67 -20 151q0 179 141 324q28 28 63 50.5t65 42.5t58 38.5t57 32.5q68 32 133.5 32t122 -32.5t95.5 -84.5q80 -105 80 -247zM1397 1637q-66 -333 -246 -695
q-293 -587 -596 -954q-49 -59 -84.5 -81.5t-60.5 -36.5q-68 -39 -94 -64q366 440 646 1013q172 351 233 643q2 8 2.5 20t9.5 26t33.5 31t52.5 33l56 32t48 33zM890 1096q0 -240 -226 -408q-124 -94 -181 -114t-114.5 -20t-116.5 32t-98 84q-79 105 -79 256q0 194 141 337
q28 29 63 51.5t65 42.5t58 38t58 33q67 32 109.5 32t88.5 -12t92.5 -46.5t77.5 -81.5q62 -96 62 -224zM1677 416q0 52 -23 116.5t-66 113.5q-92 107 -237 107q-13 0 -27 -2q-75 -107 -75 -262q0 -142 81 -252q89 -122 228 -122q19 0 39 3q80 108 80 298zM696 989
q0 52 -23 116.5t-65 113.5q-93 107 -238 107q-14 0 -27 -3q-75 -107 -75 -261q0 -144 81 -253q90 -122 228 -122q19 0 39 4q80 108 80 298z" />
    <glyph glyph-name="ampersand" unicode="&#x26;" horiz-adv-x="2171" 
d="M1415 442q124 183 124 365q0 104 -42 199q-58 8 -112 8q-121 0 -202 -42q122 100 172 126q98 51 218 51q72 0 167 -11q186 -23 241 -23q100 0 169 13q-22 -7 -53 -36.5t-47 -41.5q-65 -50 -106 -60q-74 -18 -212 -10q2 -18 2 -38q0 -281 -275 -541q35 -32 75.5 -69
t72.5 -66t60 -53.5t58 -44.5q99 -64 240 -30q49 11 94 34q-105 -88 -164 -120q-113 -64 -217 -64q-134 0 -316 184q-45 46 -85 83q-381 -277 -699 -277q-183 0 -316 78q-159 92 -159 263q0 201 313 391q44 27 84 50q-209 50 -209 236q0 94 100 210q93 109 222 185
q134 79 227 79q119 0 202 -70q88 -73 88 -190q0 -196 -258 -363q183 -72 420 -292q63 -59 123 -113zM931 1082q0 44 -20 94t-57 86q-75 73 -198 73q-46 0 -87 -10q-83 -100 -83 -201q0 -139 114 -192q58 -26 123.5 -41t102.5 -27q105 20 105 218zM1263 268q-71 66 -144 135
t-151 132q-181 145 -344 195q-61 -15 -120 -28t-105 -39q-102 -58 -102 -197q0 -221 249 -314q99 -37 184 -37t154.5 10t137.5 29q155 43 241 114z" />
    <glyph glyph-name="quotesingle" unicode="'" horiz-adv-x="399" 
d="M279 1465q42 0 42 -93q0 -92 -50 -222q-16 -41 -51.5 -91.5t-55.5 -78.5q-2 15 -4.5 47t-7 72t-11 82.5t-16.5 77.5q-23 79 -57 79q64 80 153 115q30 12 58 12z" />
    <glyph glyph-name="parenleft" unicode="(" horiz-adv-x="939" 
d="M959 -170q-22 -8 -73 -53.5t-76.5 -64t-44.5 -18.5q-204 0 -372 154q-150 136 -239 356q-85 207 -85 405q0 318 149 565q52 85 119 147.5t139.5 120t151.5 107.5q172 110 327 154q-29 -11 -68 -48q-78 -72 -120.5 -87t-81.5 -28.5t-73 -31.5q-132 -69 -230 -254
q-119 -229 -119 -506q0 -201 83 -406q89 -220 238 -356q169 -154 375 -156z" />
    <glyph glyph-name="parenright" unicode=")" horiz-adv-x="951" 
d="M866 923q17 -97 17 -206t-32 -228.5t-90 -226.5t-139 -200t-180 -166q-204 -152 -448 -202q24 9 68 49q84 75 126 87q500 140 500 766q0 199 -84 413q-144 363 -410 502q-93 49 -200 57q19 6 44 28t52 46q70 62 98 62q46 0 128 -29t160.5 -86t142.5 -131t113.5 -162
t83 -182t50.5 -191z" />
    <glyph glyph-name="asterisk" unicode="*" horiz-adv-x="999" 
d="M909 1096q0 -34 -238 -95q-69 -18 -113 -25q145 -133 264 -187q39 -13 39 -21.5t-8 -24.5t-21 -36t-29 -40.5t-31 -37.5q-34 -39 -47 -39t-33 23t-44 59t-49 79.5t-47 84.5q-47 88 -53 118q-88 -110 -149 -237q-20 -43 -26 -66.5t-13 -24.5q-26 -2 -83 34
q-107 65 -107 88q0 34 195 168q68 47 94 61q-116 23 -192 52.5t-96 41t-20 21.5q0 19 37 69q69 92 90 92q6 0 18.5 -17.5t40.5 -47t60 -58.5q59 -51 127 -97q-26 222 -94 338q-7 12 -7 18t12.5 13.5t32 13.5t42.5 11.5t45 8.5q46 8 60.5 8t22.5 -1.5t11 -6.5q5 -6 5 -39
t-5 -79.5t-14 -94.5q-19 -110 -38 -171q159 112 218 200q6 8 14 8t30 -22t44 -50q55 -70 55 -92z" />
    <glyph glyph-name="plus" unicode="+" horiz-adv-x="1030" 
d="M978 615q-13 -1 -66 -48q-101 -88 -128 -88h-167v-225q0 -18 -59.5 -53t-81.5 -48q-51 -30 -53 -35v361h-361q14 1 66 48q101 88 128 88h167v225q0 13 35 35.5t59.5 37.5t46.5 27q49 28 53 36v-361h361z" />
    <glyph glyph-name="comma" unicode="," horiz-adv-x="483" 
d="M187 -280q103 103 103 212q0 41 -15.5 53.5t-28 12.5t-23 -7.5t-17.5 -11.5q-16 -10 -16 -9l-105 167q-4 4 32 30t61.5 43t47.5 32q52 33 54 31q13 -21 27.5 -42.5t28.5 -42.5q32 -52 43 -92t9 -82.5t-16 -83.5q-28 -84 -90 -146q-18 -18 -53 -37.5t-42 -26.5z" />
    <glyph glyph-name="hyphen" unicode="-" horiz-adv-x="1179" 
d="M1054 615q-13 -1 -66 -48q-101 -88 -128 -88h-722q12 1 65.5 47.5t82 67.5t46.5 21h722z" />
    <glyph glyph-name="period" unicode="." horiz-adv-x="471" 
d="M383 106l-194 -136l-105 167l194 136z" />
    <glyph glyph-name="slash" unicode="/" horiz-adv-x="928" 
d="M850 1439q-215 -665 -593 -1303q-27 -37 -75 -62q-96 -50 -119 -74q292 477 509 1064q35 95 84 239q15 31 68 59q104 55 126 77z" />
    <glyph glyph-name="zero" unicode="0" horiz-adv-x="1476" 
d="M1382 822q0 -429 -376 -695q-216 -153 -376 -153q-250 0 -399 209q-135 189 -135 445q0 334 204 544q95 98 250 193q157 97 298 97q162 0 290 -98q176 -134 228 -388q16 -77 16 -154zM1188 709q0 64 -16.5 139t-48 144.5t-77 130t-103.5 105.5q-125 97 -279 97
q-272 0 -348 -300q-27 -110 -27 -222.5t15.5 -191.5t46.5 -152.5t77 -137.5t106 -111q128 -102 296 -102q131 0 219 104q139 166 139 497z" />
    <glyph glyph-name="one" unicode="1" horiz-adv-x="754" 
d="M449 370q0 -154 -80 -234h369q-166 -136 -194 -136h-388l2 4q49 45 73 90t24 110v734l-205 -120v31l399 240v-719z" />
    <glyph glyph-name="two" unicode="2" horiz-adv-x="1096" 
d="M343 965l-194 -136q-38 71 -38 145.5t20 125.5t55 92q44 53 128.5 112t119 83t70.5 42q82 40 152.5 40t131.5 -18.5t110 -54.5q108 -79 108 -207q0 -179 -179 -365q-49 -51 -87 -85.5t-84 -78.5t-99 -98.5t-107.5 -115t-98.5 -118.5q-99 -131 -101 -192h749
q-19 -4 -65.5 -46t-65.5 -56q-42 -34 -63 -34h-753q83 186 209 323q44 48 102 101t119 110t120 118t105 126q103 146 103 275q0 118 -100 201q-95 81 -215 81q-109 0 -149 -51q-40 -48 -40 -148.5t37 -170.5z" />
    <glyph glyph-name="three" unicode="3" 
d="M139 953q166 136 194 136h675q-198 -292 -335 -437q-63 -67 -133 -125q240 -9 353 -87q138 -96 138 -317q0 -196 -157 -317q-134 -104 -222 -146q-166 -80 -305 -80q-88 0 -159 18t-102 32q-68 31 -68 78q0 51 86 116q43 31 135 81q-28 -33 -28 -60.5t19.5 -46.5t50 -33
t68.5 -23t75 -14q64 -10 117.5 -10t105.5 11t95 41q97 69 97 206.5t-38.5 214t-106.5 119.5q-114 74 -351 81q24 23 49.5 44t63 57.5t86 94.5t94 119.5t89.5 124t86 121.5z" />
    <glyph glyph-name="four" unicode="4" horiz-adv-x="1359" 
d="M974 340q0 -116 -102 -204h326q-12 -2 -66 -48.5t-82 -67t-46 -20.5h-330q77 39 94 102q12 41 12 213v28h-487q-143 0 -291 1q500 496 659 755q32 51 60.5 102.5t47 84t35.5 45.5t38.5 26t44.5 26t41 26l46 32v-962h81q128 0 230 48q36 17 62 42q-184 -178 -373 -214v-15
zM780 480v635q-183 -268 -466 -532q-9 -8 -39 -35q-44 -43 -75 -68h580z" />
    <glyph glyph-name="five" unicode="5" horiz-adv-x="1109" 
d="M314 -44q-51 -51 -51 -79.5t18.5 -44t47.5 -28t65 -21.5t70 -15q68 -12 98 -12q84 0 162 72q99 90 99 215q0 274 -207 356q-69 27 -136.5 27t-111.5 -7.5t-87 -19t-86 -24.5t-86 -24q53 200 59 602l195 136h712q-163 -136 -195 -136h-520q-11 -259 -52 -449
q105 54 338 54q173 0 270 -96q99 -96 99 -269q0 -165 -110 -283q-182 -196 -388 -264q-75 -24 -121 -24t-73 3.5t-60 9.5t-68 15t-63 21q-66 28 -66 57q0 41 59 100q29 29 74 53q87 47 115 75z" />
    <glyph glyph-name="six" unicode="6" horiz-adv-x="1288" 
d="M998 1255q0 87 -290 87q-216 0 -326 -231q-91 -190 -87 -419v-28q164 156 351 226q66 24 120.5 24t106.5 -15t99.5 -41.5t89 -63.5t71.5 -82q65 -96 65 -188.5t-32 -161.5t-84 -127q-85 -97 -241 -193q-134 -81 -277 -81q-171 0 -292 111q-177 163 -177 467
q0 270 131 500q75 131 238 255q236 180 481.5 180t245.5 -81q0 -23 -21 -52q-17 -10 -44.5 -26t-55.5 -35q-68 -43 -89 -68q17 22 17 43zM1001 358q0 49 -15 100.5t-41.5 99t-63.5 89t-81 71.5q-94 66 -177 66t-131 -26t-83 -68q-66 -79 -93 -202q38 -172 148 -278
q119 -113 288 -113q118 0 187 81q62 74 62 180z" />
    <glyph glyph-name="seven" unicode="7" horiz-adv-x="980" 
d="M977 1089q-68 -216 -111 -347t-69 -210.5t-51 -149.5q-53 -151 -85.5 -219.5t-99 -160.5t-147.5 -177q-180 -189 -347 -256l-4 8q9 5 16.5 10t15 9.5t43 31.5t88 71.5t96.5 94.5q88 100 143.5 226t95 240.5t76 231.5t72 234t75.5 227h-768q11 8 38 30.5t58 46.5
q78 59 98 59h767z" />
    <glyph glyph-name="eight" unicode="8" horiz-adv-x="1208" 
d="M382 723q-190 83 -190 245q0 114 99 236q143 177 355 244q64 21 120.5 21t110.5 -18.5t96 -52.5q93 -77 93 -194q0 -156 -190 -348q-50 -50 -93 -86q138 -65 202 -120q128 -111 128 -227q0 -143 -160 -264q-57 -43 -115 -84t-118 -65q-118 -47 -215.5 -47t-165.5 27
t-118 75q-107 103 -107 261q0 207 268 397zM754 783q121 140 121 288q0 120 -97 193q-88 67 -211 67q-142 0 -171 -116q-10 -37 -10 -84.5t17 -87t46 -73t66.5 -60.5t78.5 -50q51 -28 160 -77zM411 710q-100 -100 -100 -256q0 -160 113 -259q110 -96 271 -96q149 0 200 86
q19 32 19 93q0 138 -114 232q-96 79 -288 158q-52 21 -101 42z" />
    <glyph glyph-name="nine" unicode="9" horiz-adv-x="1282" 
d="M301 -103q-17 -22 -17 -43t14.5 -35t37.5 -24t51.5 -16t56.5 -9q45 -5 111.5 -5t135 27t119 73t84.5 108.5t54 133.5q37 125 39 298q-165 -157 -350 -225q-66 -25 -134 -25t-145 34t-138 91q-136 127 -136 285q0 136 105 275q97 128 245 212q152 86 277.5 86t213.5 -49
t146 -129q116 -160 116 -395q0 -270 -131 -495q-76 -133 -236 -254q-240 -182 -484.5 -182t-244.5 82q0 23 21 52q149 83 189 129zM970 620q0 70 -38.5 144.5t-101.5 127.5q-133 109 -312 109q-195 0 -227 -173q-10 -54 -10 -113t17 -111t47 -98.5t71.5 -85.5t89.5 -68
q100 -60 205 -60q101 0 183 104q76 96 76 224z" />
    <glyph glyph-name="colon" unicode=":" horiz-adv-x="553" 
d="M428 746l-194 -136l-105 167l194 136zM428 106l-194 -136l-105 167l194 136z" />
    <glyph glyph-name="semicolon" unicode=";" horiz-adv-x="558" 
d="M428 746l-194 -136l-105 167l194 136zM333 -68q0 66 -42 66q-13 0 -29 -10l-28 -18l-105 167l194 136q24 -38 43 -69q49 -79 57.5 -110t8.5 -83t-29 -116t-63.5 -97.5t-61.5 -46t-47 -31.5q102 102 102 212z" />
    <glyph glyph-name="less" unicode="&#x3c;" horiz-adv-x="910" 
d="M820 136q-23 -12 -56 -36l-49 -37q-37 -28 -59 -46t-25.5 -18t-40 23t-107.5 79t-141 116q-192 163 -284 229q52 24 190 135q127 74 188 124q113 94 190 206q22 33 76 62t80 43.5t38 30.5q-114 -192 -395 -381q-78 -53 -151 -99q143 -102 282 -205.5t264 -225.5z" />
    <glyph glyph-name="equal" unicode="=" horiz-adv-x="1222" 
d="M1061 753q-12 -1 -65.5 -47.5t-82 -67.5t-46.5 -21h-702q12 1 65.5 47.5t82 67.5t46.5 21h702zM1061 477q-12 -1 -65.5 -47.5t-82 -67.5t-46.5 -21h-702q12 1 65.5 47.5t82 67.5t46.5 21h702z" />
    <glyph glyph-name="greater" unicode="&#x3e;" horiz-adv-x="916" 
d="M858 601q-68 -34 -190 -135q-127 -74 -188 -124q-108 -90 -190 -206q-25 -35 -77 -63q-101 -54 -117 -73q115 194 395 381q78 52 151 99q-143 101 -281.5 205t-264.5 226q37 15 111.5 76t77.5 61t40 -23t108 -79.5t141 -115.5q198 -167 284 -229z" />
    <glyph glyph-name="question" unicode="?" horiz-adv-x="1042" 
d="M267 1105q0 -68 38 -138l-195 -136q-37 71 -37 146q0 144 110 254q162 162 341 221q65 22 131 22t124.5 -25.5t100.5 -70.5q91 -94 91 -229q0 -142 -121 -267q-34 -35 -70 -68.5t-70 -66t-61 -67.5q-60 -79 -60 -163l8 -57q0 -25 -97.5 -75t-97.5 -61q-7 27 -7 69
t21.5 87.5t54.5 85t72 74.5t73 67t64 70t52 81q50 93 50 171.5t-28.5 134t-75.5 94.5q-97 79 -232 79q-69 0 -122 -57q-57 -62 -57 -175zM659 106l-194 -136l-105 167l195 136z" />
    <glyph glyph-name="at" unicode="@" horiz-adv-x="1520" 
d="M929 790q65 0 112 -47q12 9 49 30q67 38 72 48q-13 -68 -30.5 -135.5t-33.5 -135.5q-37 -165 -37 -274q0 -36 19 -56t55 -18q113 191 113 399q0 176 -106 288q-110 116 -282 116q-233 0 -402 -193q-100 -115 -139 -266q-19 -74 -19 -158t24 -175t74 -163
q113 -158 311 -164q-14 -4 -43 -28.5t-49 -41.5t-39 -32q-41 -34 -64 -34q-189 0 -306 160q-106 144 -106 340q0 345 281 582q190 160 411 250q160 66 265 66t174 -36t115 -96q95 -122 95 -297q0 -123 -70 -277q-115 -251 -297 -345q-63 -32 -129 -32q-90 0 -79 117
q-132 -99 -228.5 -99t-154 57t-57.5 158q0 116 76 233q72 112 185 184q118 75 240 75zM758 651q-102 6 -127 -141q-6 -36 -6 -70q0 -106 56 -162.5t160 -56.5q26 0 49 83q19 70 19 109q0 95 -35 163t-116 75z" />
    <glyph glyph-name="A" unicode="A" horiz-adv-x="1403" 
d="M162 135q7 1 80 1q125 0 184.5 19t85.5 35q-37 -28 -68 -52q-67 -52 -107.5 -75t-80.5 -35.5t-82 -18.5q-62 -9 -169 -9h-39q1 1 1.5 2t14 16t39.5 43.5t69 85.5t93.5 147t94 183.5t83.5 189.5t82.5 192.5t86.5 195t66.5 154.5t26 70t11.5 24h-76q-186 0 -289 -42
q138 120 231 151q85 27 276 27h53q43 -143 86.5 -290t87.5 -294q96 -320 144.5 -464t57 -171.5t21.5 -49.5q29 -48 93 -48q35 0 73.5 16t59.5 29q-36 -27 -64 -49q-72 -55 -92 -67.5t-40 -24.5t-42 -22q-140 -62 -189 47q-35 77 -84 246.5t-87 288.5q-84 -60 -366 -56h-62
q-113 -226 -220 -345q-9 -10 -18 -21q-26 -30 -26 -29zM504 669l198 -4q62 0 126 4q-46 146 -137 447q-99 -227 -201 -450q12 3 14 3z" />
    <glyph glyph-name="B" unicode="B" horiz-adv-x="1235" 
d="M499 1439l198 1q168 0 249 -49q106 -63 106 -217q0 -144 -166 -265q-46 -33 -89 -63q241 -27 319 -198q28 -60 28 -128.5t-25.5 -123.5t-68 -105.5t-97 -95.5t-112.5 -81q-160 -97 -281 -107q-86 -7 -152 -7h-225q44 62 53 90q14 42 14 116v1097h-220q159 136 194 136
h275zM444 845q63 2 157 2.5t136 -2.5q100 31 117 119q5 31 5 70q0 276 -345 276q-36 0 -70 -2v-463zM444 347q0 -115 -64 -211h279q117 0 173 32.5t85 79t29 123.5t-21 132t-57 93t-85 61t-105 35q-91 21 -234 21v-366z" />
    <glyph glyph-name="C" unicode="C" horiz-adv-x="1391" 
d="M1342.5 1432q19.5 -9 19.5 -17.5t-16 -23.5t-40 -33.5t-53 -39.5t-55 -38q-62 -41 -74 -45q1 4 15 15q26 21 26 26.5t-4.5 9t-10 6t-10.5 4.5t-38 14q-79 31 -227 31t-255.5 -34.5t-182.5 -104.5q-155 -145 -155 -422q0 -281 154 -475q166 -208 436 -208q179 0 439 114
q-8 -7 -15 -13q-10 -11 -25 -23q-291 -218 -603 -218q-269 0 -430 203q-149 189 -149 469q0 144 42.5 243.5t99.5 177.5t129.5 144t157 118.5t175.5 89.5q187 76 377 76q107 0 180 -18.5t92.5 -27.5z" />
    <glyph glyph-name="D" unicode="D" horiz-adv-x="1553" 
d="M1458 784q0 -123 -39.5 -232t-108 -197t-161.5 -154.5t-199 -110.5q-215 -90 -454 -90h-322q76 79 76 285v1018h-220q16 4 68 50q99 86 126 86l444 1q332 0 547 -150q243 -169 243 -506zM1230 413q35 96 35 226.5t-26.5 229.5t-76.5 172.5t-122 123.5t-163 81
q-172 57 -433 57v-964q0 -102 -30 -155q-13 -21 -34 -51h333q417 0 517 280z" />
    <glyph glyph-name="E" unicode="E" horiz-adv-x="1132" 
d="M56 1303q166 136 194 136h826q-11 -1 -65 -47.5t-82.5 -67.5t-46.5 -21h-444v-485h485q-11 -1 -36 -22.5t-55 -46.5q-79 -67 -104 -67h-290v-326q0 -111 -34 -182q-13 -28 -34 -38h556q57 0 118 26l62 26q-51 -61 -218 -150q-72 -38 -97 -38h-638q90 122 90 239v443h-140
q87 70 140 109v512h-187z" />
    <glyph glyph-name="F" unicode="F" horiz-adv-x="1081" 
d="M58 1303q163 136 194 136h873q-14 -2 -42.5 -27t-48.5 -42.5t-39 -31.5q-45 -35 -65 -35h-490v-544h485q-13 -2 -42 -27.5t-49 -42.5t-39 -32q-44 -35 -65 -35h-290v-234q0 -180 -72 -252h321q-14 -2 -42.5 -27t-48.5 -42.5t-39 -32.5q-45 -34 -65 -34h-339
q90 140 90 239v383h-140q70 56 140 110v571h-187z" />
    <glyph glyph-name="G" unicode="G" horiz-adv-x="1637" 
d="M1599 759q-9 -3 -52 -36t-72 -59v-347q-116 -148 -326 -251q-212 -104 -382 -104t-292.5 50.5t-208.5 139.5q-175 184 -175 485q0 222 82 361q119 212 367 356q247 143 493 143q169 0 341 -52q68 -20 113 -49q10 -7 10 -15t-16 -22.5t-40.5 -33t-53.5 -38.5t-55 -37
q-53 -36 -70 -43q1 3 7 8t13 11q17 16 17 26q0 39 -137 73q-146 37 -311 37t-268 -40t-169 -116q-127 -148 -127 -440q0 -283 168 -470q175 -196 454 -196q168 0 297 44q48 17 77 43v435h-287l38 32q129 105 156 105h409z" />
    <glyph glyph-name="H" unicode="H" horiz-adv-x="1665" 
d="M1629 136q-12 -1 -65 -48q-103 -88 -130 -88h-338q53 59 67 94q22 56 22 145v443h-744v-294q0 -95 -9 -129q-14 -52 -63 -123h321q-14 -2 -62 -44t-68 -57q-45 -35 -65 -35h-339q74 58 86 159q4 35 4 80v1064h-187l39 31q127 105 155 105h437q-12 0 -61 -43t-69 -58
q-45 -35 -65 -35h-54v-485h744v485h-187l38 31q128 105 157 105h436q-12 0 -61 -43t-68 -58q-46 -35 -66 -35h-54v-915q0 -95 -9 -129q-14 -54 -62 -123h320z" />
    <glyph glyph-name="I" unicode="I" horiz-adv-x="733" 
d="M59 1303q166 136 194 136h456q-13 -2 -61 -44t-68 -57q-45 -35 -65 -35h-74v-915q0 -173 -72 -252h321q-14 -2 -62 -44t-68 -57q-45 -35 -65 -35h-339q53 53 67 90q23 59 23 149v1064h-187z" />
    <glyph glyph-name="J" unicode="J" horiz-adv-x="710" 
d="M707 1439q-18 -5 -70 -50.5t-79 -65.5t-45 -20h-75v-1080q0 -175 -84 -350q-86 -181 -226 -293q-155 -123 -332 -123q-51 0 -116 24.5t-90 38.5q-56 31 -56 59q0 29 162 141q51 37 80 51q-52 -35 -52 -60q0 -12 48.5 -41t83.5 -44q81 -34 140.5 -34t100.5 25t68.5 66
t43 93t23.5 107q12 83 12 203v1217h-187q12 9 39.5 31.5t57.5 45.5q76 59 97 59h456z" />
    <glyph glyph-name="K" unicode="K" horiz-adv-x="1630" 
d="M1117 1303q-125 -134 -447 -434q589 -580 712 -667q95 -68 184 -68q46 0 151 47q-56 -53 -100 -82t-74 -45.5t-62 -29.5q-123 -50 -209 -13q-65 27 -118 74.5t-87 77.5t-81 72.5t-98 88.5q-95 89 -202.5 191t-223.5 212q483 463 582 576h-175q69 62 125.5 99t68.5 37h397
q-19 -4 -65.5 -46t-64.5 -57q-43 -33 -65 -33h-148zM158 0q90 93 90 348v955h-187l39 31q127 105 155 105h456q-11 -1 -65 -47.5t-82.5 -67.5t-46.5 -21h-74v-915q0 -95 -9 -129q-14 -52 -63 -123h321q-14 -2 -62 -44t-68 -57q-45 -35 -65 -35h-339z" />
    <glyph glyph-name="L" unicode="L" horiz-adv-x="1121" 
d="M444 307q0 -111 -79 -171h564q81 0 122.5 19t61.5 35q-119 -147 -255 -182q-30 -8 -61 -8h-648q56 54 72 90q28 64 28 149v1064h-187l38 31q128 105 156 105h456q-11 0 -60 -43t-68 -58q-46 -35 -66 -35h-74v-996z" />
    <glyph glyph-name="M" unicode="M" horiz-adv-x="2216" 
d="M1969 366q0 -149 -51 -230h296q-19 -5 -44 -27t-52 -46q-71 -63 -99 -63h-297q50 74 50 202t-6.5 246.5t-10.5 203.5t-6.5 141t-4.5 113q-8 167 -11 221q-89 -155 -181.5 -321.5t-158.5 -281.5t-104.5 -190t-81.5 -149q-9 -15 -95 -71t-99 -65q-55 168 -138 313t-137 232
t-106 174l-159 265q-43 -517 -65.5 -632.5t-43 -174t-51.5 -90.5h320q-166 -136 -194 -136h-329q58 58 97 254q44 218 103 1049h-251q73 73 173 128q14 8 21 8h252q84 -139 167 -277l166 -277q42 -70 85 -139.5t84 -139.5q99 -171 150 -290q95 167 224 403q229 422 341 614
q19 31 148 107q29 17 46 29q24 -437 34.5 -693t14.5 -307t4 -103z" />
    <glyph glyph-name="N" unicode="N" horiz-adv-x="1824" 
d="M1401 343q23 266 23 504.5t-19 455.5h-178q12 9 39.5 31.5t57.5 45.5q76 59 97 59h377q-22 -7 -67.5 -48t-71 -61t-50.5 -26q2 -24 2 -48v-48l-3 -223q0 -368 -79 -778q-2 -10 -4 -24t-5 -29q-5 -35 -12 -50.5t-27 -35t-44 -38.5q-28 -24 -85 -64q-12 75 -86 167
q-357 446 -805 944v-493q0 -293 -45 -379q-25 -45 -46 -69h323q-12 -9 -39.5 -31.5t-57.5 -46.5q-76 -58 -97 -58h-329q86 124 98 326q4 58 4 318.5t-22 658.5h-227q12 9 39.5 31.5t57.5 45.5q76 59 97 59h377q-26 -9 -52 -34t-35 -33q268 -284 456.5 -507.5t272.5 -321
t165 -200.5z" />
    <glyph glyph-name="O" unicode="O" horiz-adv-x="1756" 
d="M1673 834q0 -103 -35 -215.5t-96.5 -215t-146.5 -191.5t-185 -154q-214 -139 -437 -139q-315 0 -499 183q-185 183 -185 497q0 237 131 445q124 199 332 318q211 121 449 121q274 0 471 -181q201 -185 201 -468zM1478 674q0 139 -48.5 265.5t-137.5 216.5
q-186 187 -495 187q-403 0 -487 -339q-26 -107 -26 -254t45.5 -278.5t133.5 -225.5q184 -195 508 -195q259 0 391 180q116 158 116 443z" />
    <glyph glyph-name="P" unicode="P" horiz-adv-x="1224" 
d="M660.5 546q-75.5 -19 -128.5 -19t-81 2q0 -56 0.5 -109t-8.5 -102q-20 -110 -99 -182l315 2q-14 -3 -39 -25t-54 -47q-75 -66 -101 -66h-317q69 63 86 106q22 59 22 162v1035h-230q159 136 194 136h537q177 0 298 -87q135 -97 135 -269q0 -157 -124 -289
q-84 -91 -261 -191q-69 -38 -144.5 -57zM996 953q0 350 -502 350h-43v-592q37 -3 102 -19q115 -28 180.5 -28t117 16.5t83.5 51.5q62 66 62 221z" />
    <glyph glyph-name="Q" unicode="Q" horiz-adv-x="1763" 
d="M1101 33q-148 -74 -313.5 -74t-291.5 46t-216 132q-190 182 -190 487q0 231 134 434q128 194 336 308q214 117 442 117q273 0 470 -181q202 -186 202 -457q0 -293 -225 -543q-68 -75 -147 -137q73 -51 154 -107.5t168 -104.5q200 -111 360 -111q88 0 222 55
q-132 -132 -309 -177q-59 -15 -125 -15q-126 0 -250 67q-168 89 -421 261zM1479 702q0 135 -52.5 255.5t-144.5 206.5q-192 179 -484 179q-401 0 -486 -335q-27 -106 -27 -249.5t50 -268.5t141 -214q191 -185 496 -185q253 0 386 178q121 161 121 433z" />
    <glyph glyph-name="R" unicode="R" horiz-adv-x="1433" 
d="M712 1439q462 0 462 -301q0 -146 -124 -272q-98 -99 -254 -174q78 -31 154 -115q21 -24 44 -49l260 -288q68 -77 98.5 -92t50.5 -15q46 0 96 32q-120 -170 -298 -170q-45 0 -89 51q-11 13 -23 26l-267 295q-57 63 -97 105.5t-79 68.5q-74 49 -202 49v-202q0 -98 -8 -131
q-13 -49 -63 -121h320q-13 -2 -41.5 -27t-48.5 -42.5t-39 -32.5q-45 -34 -65 -34h-329q80 88 80 239v1064h-216l38 31q128 105 156 105h484zM980 993q0 86 -37 145t-96 96q-110 69 -279 69h-124v-573h156q179 0 264 45q116 61 116 218z" />
    <glyph glyph-name="S" unicode="S" horiz-adv-x="1157" 
d="M789 1207q34 34 34 49.5t-14.5 26.5t-37 19t-50 13.5t-53.5 8.5q-52 6 -88.5 6t-84 -7t-87.5 -27q-91 -46 -91 -137t33.5 -145.5t87.5 -90.5t123.5 -60t142.5 -45t142.5 -45t123.5 -61q121 -83 121 -231q0 -145 -123 -269q-105 -106 -279 -174q-157 -62 -301 -62
q-89 0 -161.5 21t-102.5 37q-70 35 -70 83q0 77 229 202q-30 -33 -30 -63.5t19.5 -52t50.5 -37t69.5 -25.5t76.5 -16q70 -11 127 -11t112 10.5t98 36.5q97 58 97 183q0 194 -246 288q-70 26 -143.5 49.5t-143.5 48.5t-124 60q-122 80 -122 211q0 109 123 225
q106 100 267 172q153 69 261 69q97 0 156 -18t74.5 -27.5t15.5 -22t-14 -30t-36 -37.5t-48.5 -40t-52.5 -37q-60 -39 -81 -48z" />
    <glyph glyph-name="T" unicode="T" horiz-adv-x="1248" 
d="M-18 1303q166 136 194 136h1128q-13 -2 -61 -44t-67 -57q-46 -35 -66 -35h-410v-915q0 -121 -41 -200q-18 -34 -40 -52h330q-14 -2 -62 -44t-67 -57q-46 -35 -66 -35h-348q60 54 75 91q24 59 24 148v1064h-523z" />
    <glyph glyph-name="U" unicode="U" horiz-adv-x="1724" 
d="M1728 1440q-21 -6 -46 -28t-52 -46q-68 -62 -97 -62h-74v-915q0 -110 -45 -199q-15 -31 -36 -53h330q-24 -7 -73.5 -52.5t-75 -64.5t-46.5 -19h-328q60 84 69.5 131t10.5 83q-159 -115 -258 -159q-186 -83 -328 -83t-227 35t-136 100q-97 122 -97 366v830h-169
q12 9 39 31.5t58 46.5q77 58 97 58h417q-24 -7 -73.5 -52.5t-75 -64.5t-46.5 -19h-53v-773q0 -204 124 -315q119 -105 326 -105q141 0 315 87q50 25 87 53v1053h-188q12 9 39.5 31.5t58.5 46.5q77 58 97 58h456z" />
    <glyph glyph-name="V" unicode="V" horiz-adv-x="1471" 
d="M773 195q416 693 416 954q0 114 -69 153q-25 14 -60.5 14t-72.5 -13q39 16 69.5 44.5t47.5 44.5t38 29q45 29 109.5 29t98 -39.5t33.5 -107t-23 -153.5t-60 -179t-84.5 -189t-97.5 -186q-51 -93 -133 -230t-114 -191.5t-59 -85t-55 -48.5t-58 -36q-80 -48 -92 -64
q-33 133 -63 266.5t-64 266.5q-77 306 -163 523q-11 27 -25 61.5t-31.5 70t-39 69.5t-47.5 60q-57 59 -123 59q-35 0 -69.5 -18t-50.5 -21q1 0 14 12t19.5 17.5t21 17t49 36t71.5 45.5q87 50 133 50t67 -9t49.5 -34.5t63.5 -84t68 -135t63.5 -166t58.5 -183.5t53 -188
t45.5 -179.5t37 -158t28.5 -123.5z" />
    <glyph glyph-name="W" unicode="W" horiz-adv-x="2166" 
d="M927 1302q37 25 190 137q147 -105 404 -1061q18 -67 28 -107q19 46 52 116.5t71.5 153.5t78 172t71.5 171q72 183 72 257q0 116 -74 167q-25 17 -52 17q-44 0 -80 -17q33 17 62.5 42.5t59.5 49.5q74 59 137 59q64 0 105 -51q39 -46 39 -113q0 -120 -299 -781
q-102 -226 -115 -259t-26 -63q-31 -70 -46 -91t-41.5 -40t-58.5 -40.5t-62 -41t-42 -28.5q-30 118 -59.5 236t-61.5 235q-67 249 -145 462q-70 -190 -174 -418t-127.5 -283t-52.5 -96q-12 -16 -97 -71.5t-97 -64.5q-11 46 -29 128.5t-42 187.5t-54 223t-66 235t-77 224
t-87 189q-100 179 -201 179q-51 0 -108 -33q97 101 233 154q45 18 78 18q87 0 162 -120q66 -108 111 -237.5t72 -218t51 -177t44 -169.5q30 -116 64 -265q23 53 52.5 118t60 135.5t59.5 144.5t52 146q50 162 50 263q0 146 -85 226z" />
    <glyph glyph-name="X" unicode="X" horiz-adv-x="1649" 
d="M1310 1304q-175 -202 -422 -467q477 -671 530 -700q39 -24 65 -24q44 0 140 48q-182 -182 -313 -182q-73 0 -128 63q-50 55 -124 156.5t-110 150.5q-75 102 -227 316l-533 -528h362q-22 -9 -74.5 -55t-77.5 -63.5t-43 -17.5h-368l709 698q-104 143 -148.5 202.5t-70 94
t-49.5 66.5t-44 58.5t-43 61t-51 64.5q-67 73 -131 73q-47 0 -125 -39q149 135 274 170q28 8 56.5 8t53 -14t45 -35.5t37.5 -47t36 -49.5t43.5 -57.5t51.5 -69.5t54 -73t70 -94.5t105 -141.5q200 247 367 428h-246q18 5 70 50.5t79 65.5t46 20h456q-18 -5 -70 -50.5
t-79 -65.5t-46 -20h-127z" />
    <glyph glyph-name="Y" unicode="Y" horiz-adv-x="1257" 
d="M748 354q0 -116 -70 -219h321q-13 -2 -66 -48q-101 -87 -128 -87h-349q100 104 100 257v253q0 97 -114 333q-119 245 -248 385q-96 105 -168 105q-47 0 -122 -49q157 175 309 175q85 0 151 -77q147 -173 280 -452q62 -132 91 -234q190 248 241 411q13 42 13 73.5t-8 58.5
t-25 47q-35 42 -97 42q-30 0 -54 -7q22 6 46.5 29.5t52.5 48.5q75 65 139.5 65t101.5 -35.5t37 -90t-24.5 -115.5t-63 -127.5t-87 -135t-96.5 -131.5t-91.5 -116.5t-71.5 -89.5v-269z" />
    <glyph glyph-name="Z" unicode="Z" horiz-adv-x="1247" 
d="M543 149l484 -14q75 0 192 52q-101 -125 -248 -171q-49 -16 -96 -16h-875q192 164 481 626q41 66 70 112t57.5 94t60.5 100.5t66.5 106.5t68.5 103q75 110 129 160q-70 -8 -175 -8l-483 16q-106 0 -178 -8q14 11 40.5 32.5t55.5 43.5q72 55 107 61.5t80 6.5h89l483 -16
q105 0 177 8q-71 -64 -194 -263q-65 -101 -127.5 -201.5t-121.5 -194t-113.5 -180.5t-114.5 -170q-135 -187 -273 -304q178 24 358 24z" />
    <glyph glyph-name="bracketleft" unicode="[" horiz-adv-x="710" 
d="M372 -14q0 -91 -75 -162h413q-159 -136 -194 -136h-418q46 45 63 109t17 158v1609q0 26 132 106q49 30 62 30h358q-14 -2 -62 -44t-68 -57q-45 -35 -65 -35h-163v-1578z" />
    <glyph glyph-name="backslash" unicode="\" horiz-adv-x="947" 
d="M884 136q-183 -136 -194 -136q-1 0 -9 14t-18.5 32.5t-26.5 44.5q-328 561 -539 1212q21 13 45 30.5t49.5 36l51 37t48.5 32.5q188 -576 460 -1072q2 -4 9 -16t16.5 -29.5t21.5 -37.5q18 -30 86 -148z" />
    <glyph glyph-name="bracketright" unicode="]" horiz-adv-x="716" 
d="M6 1564q166 136 194 136h418q-65 -94 -76 -186q-4 -33 -4 -72v-1618q0 -26 -132 -106q-49 -30 -62 -30h-358q16 2 63 44.5t66 57.5q45 34 65 34h164v1578q0 58 69 162h-407z" />
    <glyph glyph-name="asciicircum" unicode="^" horiz-adv-x="666" 
d="M665 874q2 -6 -11 -17.5t-34.5 -26t-47 -29.5t-48.5 -28q-53 -31 -54 -35l-159 385l-117 -249q-14 -31 -99 -76q-88 -45 -95 -60l250 534q7 18 80 63q94 58 114 73z" />
    <glyph glyph-name="underscore" unicode="_" horiz-adv-x="998" 
d="M952 -200q-13 -1 -66 -48q-101 -88 -128 -88h-722q12 1 65.5 47.5t82 67.5t46.5 21h722z" />
    <glyph glyph-name="grave" unicode="`" horiz-adv-x="494" 
d="M494 1390q-11 -8 -38.5 -30t-58.5 -46q-80 -60 -97 -60q-3 0 -16 9q-94 62 -155 131t-111 147l-18 29q0 11 79 65q106 71 113 71t8 -5t9 -19q60 -102 138 -177.5t147 -114.5z" />
    <glyph glyph-name="a" unicode="a" horiz-adv-x="930" 
d="M753 296l-2 -70q0 -78 44 -99q17 -8 39 -8q35 0 72 16q-38 -16 -66 -42t-57 -51q-72 -60 -145 -60t-78 84q-2 22 -2 44q-180 -125 -330 -125q-127 0 -176 77q-18 28 -18 77t30 98.5t76 90.5q82 76 198 125q86 37 221 42v44q0 159 -29 215t-75 82.5t-108 26.5
q-105 0 -185 -41q110 91 161 120q105 59 190.5 59t128.5 -25t68 -66q43 -72 43 -207v-407zM339 127q32 -8 95 -8t125 30v210h-162q-87 0 -152 -12q-13 -43 -13 -82t13.5 -67t37.5 -45.5t56 -25.5z" />
    <glyph glyph-name="b" unicode="b" horiz-adv-x="1125" 
d="M338 807q202 175 368 175q170 0 264 -134q81 -116 81 -291q0 -134 -87 -273q-85 -135 -214 -223q-138 -93 -272 -93q-141 0 -238 97q-96 96 -96 238v991q0 85 -9 113q-21 64 -82 64q-17 0 -42 -6t-41 -9q99 77 149 110t105 71.5t114 69.5v-900zM849 292q10 60 10 133
t-18.5 149.5t-58.5 137.5q-90 136 -254 136q-87 0 -141 -82q-49 -75 -49 -169v-247q0 -112 81 -184q80 -72 201 -72q196 0 229 198z" />
    <glyph glyph-name="c" unicode="c" horiz-adv-x="946" 
d="M717 774q20 20 20 30t-13.5 19t-35 16.5t-47.5 14t-50 10.5q-51 10 -98 10t-95.5 -28.5t-77.5 -75.5q-51 -84 -51 -203.5t26 -197t76 -133.5q105 -116 297 -116q121 0 229 60q-126 -136 -319 -182q-61 -14 -135 -14t-146 31t-122 86q-103 113 -103 293q0 146 101 294
q149 216 393 294q76 25 138 25q146 0 218 -54q8 -6 8 -16q0 -36 -146 -130q-52 -33 -67 -33z" />
    <glyph glyph-name="d" unicode="d" horiz-adv-x="1174" 
d="M554 970.5q77 21.5 130 21.5t93 -7v328q0 107 -39 142q-18 16 -44 16q-31 0 -91 -15q251 191 368 251v-1430q0 -81 17 -107q30 -50 104 -50q30 0 59 6q-29 -23 -57.5 -48t-59.5 -46q-71 -48 -125 -48t-77.5 10t-36.5 29q-20 29 -20 109q-205 -152 -329 -152
q-183 0 -280 122q-90 112 -90 300q0 154 96 294q89 133 235 214q70 39 147 60.5zM777 712q-45 72 -117 109t-150 37t-124 -26.5t-72 -70.5q-45 -76 -45 -190.5t20 -192t63 -136.5q94 -127 275 -127q39 0 77 23q73 42 73 79v495z" />
    <glyph glyph-name="e" unicode="e" horiz-adv-x="874" 
d="M834 185q-137 -153 -340 -191q-47 -8 -116 -8t-130 38.5t-100 99.5q-74 118 -74 288q0 112 86 248q84 134 205 224q130 96 246 96q60 0 101 -44q38 -43 38 -98t-24 -101.5t-62.5 -90.5t-88 -84.5t-101.5 -75.5q-73 -50 -184 -113q32 -121 113 -186.5t209 -65.5
q108 0 222 64zM532 586q27 43 27 84t-9 69.5t-26 50.5q-39 50 -101 50q-152 0 -152 -310q0 -55 9 -109q176 49 252 165z" />
    <glyph glyph-name="f" unicode="f" horiz-adv-x="746" 
d="M382 310q0 -100 -63 -174h294q-12 -9 -39 -31.5t-58 -46.5q-77 -58 -97 -58h-315q50 40 63 79q21 58 21 127v651h-126l126 99q0 207 10.5 273t29.5 113t54 91q66 84 218 184q142 95 270 95q72 0 165 -38q47 -19 47 -39q0 -27 -92 -97q-86 -65 -124 -69q20 20 20 32.5
t-28 26.5t-64 25q-80 24 -113 24q-70 0 -112 -13q-82 -114 -86 -336q-1 -60 -1 -115v-120h375q-14 -2 -67 -49q-100 -87 -128 -87h-180v-547z" />
    <glyph glyph-name="g" unicode="g" horiz-adv-x="971" 
d="M944 972q54 0 88 21q-2 -34 -78 -84q-63 -42 -108 -53q38 -73 38 -159t-33.5 -153t-84 -118t-109.5 -89t-109.5 -69t-84 -58t-33.5 -53.5t11.5 -45.5t29.5 -33q33 -27 69.5 -41t82 -30t97.5 -37.5t106 -47t97 -56.5q98 -69 98 -139t-103 -151q-155 -123 -402 -169
q-79 -15 -131.5 -15t-90.5 3.5t-78.5 11t-79.5 19.5t-70 30q-69 40 -69 91t19 89t50 70t70 58t79 48.5t77 42t64 37.5q-118 49 -118 116t146 165q35 23 56 39q-43 -13 -96.5 -13t-103.5 27.5t-85 71.5q-71 91 -71 217t94 239q83 99 221 164q131 61 254 61zM279 675
q0 -89 16 -146.5t50 -100.5q74 -95 208 -95q76 0 111 75q26 55 26 129q0 142 -62 223.5t-179 81.5t-143.5 -39t-26.5 -128zM810.5 -406q10.5 20 10.5 52.5t-37 65t-96.5 60t-287.5 104.5q-92 -39 -128 -69q-74 -62 -74 -140q0 -59 275 -117q97 -21 145 -21t90 8t67 22.5
t35.5 34.5z" />
    <glyph glyph-name="h" unicode="h" horiz-adv-x="1112" 
d="M348 218q0 -100 58 -100q20 0 61 17q-39 -87 -117 -131q-40 -23 -85 -20.5t-64.5 24.5t-30.5 53q-16 49 -16 126v1142q0 106 -37 141q-17 16 -43 16q-43 0 -94 -14q122 96 368 251v-917q125 110 256 150q48 15 93 15t85.5 -14.5t72.5 -40.5q71 -59 71 -147v-509
q0 -132 64 -146q18 -4 38 -4q31 0 87 25q-83 -106 -193 -139q-38 -12 -81.5 -12t-67.5 21t-33 53t-9 70v448q0 153 -47 206q-43 50 -159 50q-155 0 -173 -212q-4 -54 -4 -100v-302z" />
    <glyph glyph-name="i" unicode="i" horiz-adv-x="578" 
d="M372 1697l6 -114v-52q0 -48 -12 -58.5t-26 -20.5q-56 -40 -162 -108q5 100 5 103.5t-5 113.5zM581 123q-30 -24 -58.5 -49t-59.5 -46q-72 -47 -138 -47q-62 0 -87 19q-51 38 -51 140v474q0 108 -39 140q-18 15 -39 15t-35.5 -2.5t-29.5 -5.5t-31 -6q50 39 93.5 70
t74.5 52t86 59.5t114 69.5v-706q0 -102 13 -129q28 -55 124 -55q26 0 63 7z" />
    <glyph glyph-name="j" unicode="j" horiz-adv-x="542" 
d="M374 1697q4 -64 4 -107v-66q0 -45 -15.5 -57.5t-35 -26.5t-42.5 -29.5t-44.5 -29t-38 -24t-22.5 -13.5q3 33 3 92.5t-3 124.5zM60 -375q-23 -18 -23 -43.5t19 -37.5t40 -11h2q80 134 88 364q3 64 3 125v582q0 112 -36 148q-17 17 -44 17q-35 0 -94 -14q122 96 368 251
v-810q0 -218 -19.5 -301.5t-48.5 -151.5t-70 -130.5t-93 -110.5q-112 -105 -244 -105q-64 0 -64 48q0 31 32.5 57t57 42t48.5 30q62 36 78 51z" />
    <glyph glyph-name="k" unicode="k" horiz-adv-x="1067" 
d="M155 1337q0 150 -88 150q-26 0 -86 -15q41 31 86.5 65.5t92.5 68.5q102 71 190 117l-1 -918q112 100 249 147q46 16 81 16t62.5 -12t47.5 -32q43 -45 43 -101t-28 -101.5t-69 -85.5q-58 -58 -171 -131q14 -15 44.5 -49t69 -76t82 -87t82.5 -82q90 -85 118 -85
q70 0 138 39q-86 -118 -211 -166q-42 -16 -73.5 -16t-50 7t-35.5 18q-33 22 -89 78q-117 118 -290 305v-103q0 -23 -0.5 -52.5t5.5 -56.5q14 -64 70 -64q21 0 44 10q-21 -18 -48.5 -43t-58.5 -48q-74 -55 -122 -55q-84 0 -84 144v1214zM490 832q-141 0 -141 -361v-52
q183 73 259 182q30 43 30 83.5t-12 66t-32 43.5q-44 38 -104 38z" />
    <glyph glyph-name="l" unicode="l" horiz-adv-x="552" 
d="M556 124q-33 -26 -63 -52t-62 -46q-71 -46 -147 -46q-110 0 -120 152q-2 41 -2 80v1070q0 137 -62 178q-26 18 -50 18q-32 0 -43 -1.5t-19 -2.5q144 100 182 120q50 27 103.5 53.5t82.5 41.5v-1380q0 -41 0.5 -76t11.5 -61q25 -54 126 -54q32 0 62 6z" />
    <glyph glyph-name="m" unicode="m" horiz-adv-x="1565" 
d="M883 801q222 170 338 170q78 0 123 -65q39 -55 39 -137v-478q0 -91 11 -118q24 -53 102 -53q40 0 76 15q-89 -77 -123 -99q-78 -51 -136.5 -51t-83 20.5t-34.5 52.5q-11 35 -11 144v377q0 110 -20.5 157.5t-50.5 71.5t-70.5 24t-62.5 -12t-38 -31q-60 -71 -60 -230v-284
q0 -74 16 -102q30 -53 100 -53q40 0 76 15q-89 -77 -123 -99q-78 -51 -136.5 -51t-83 20.5t-34.5 52.5q-11 35 -11 144v377q0 110 -20.5 157.5t-50.5 71.5t-72 24t-65 -16t-39.5 -42.5t-26.5 -60t-16 -68.5q-9 -60 -9 -125v-309q0 -64 39 -87q14 -9 35 -9t44 10
q-115 -99 -162 -122t-75 -23q-76 0 -76 88v576q0 35 1 70t-7 64q-19 63 -109 63q-43 0 -86 -16q26 9 67 47q80 72 111 84q64 23 107.5 23t66 -16t32.5 -41q12 -31 12 -120q130 103 252 151q46 18 83 18t65.5 -14t48.5 -38q41 -49 47 -118z" />
    <glyph glyph-name="n" unicode="n" horiz-adv-x="1143" 
d="M190 68l1 643q0 67 -18 90q-31 40 -86 40t-98 -16q26 10 68 47q77 71 109 83q60 24 105.5 24t68 -15t32.5 -40q13 -31 13 -118q187 165 350 165q89 0 155 -56q69 -60 69 -146v-494q0 -74 16 -102q30 -53 100 -53q40 0 76 15q-89 -77 -123 -99q-78 -51 -136.5 -51t-83 21
t-34.5 53q-11 35 -11 143v374q0 179 -117 236q-42 20 -101 20q-145 0 -157 -215q-3 -54 -3 -97v-309q0 -64 39 -87q14 -9 35 -9t44 10q-21 -18 -50 -43t-61 -48q-79 -54 -126 -54q-76 0 -76 88z" />
    <glyph glyph-name="o" unicode="o" 
d="M1001.5 731.5q28.5 -74.5 28.5 -149.5t-22 -146.5t-61.5 -137.5t-93 -123.5t-117.5 -100.5q-136 -91 -275 -91q-163 0 -277 127q-111 122 -111 286q0 140 85 281q127 214 346 289q70 25 148 25t148.5 -34.5t121.5 -92.5t79.5 -132.5zM449 857q-100 0 -146 -97
q-36 -76 -36 -172t25.5 -178.5t75.5 -147.5q111 -146 286 -146q102 0 148 102q33 76 33 175q0 193 -107.5 328.5t-278.5 135.5z" />
    <glyph glyph-name="p" unicode="p" horiz-adv-x="1132" 
d="M-4 827q176 157 285 157q91 0 102 -100q3 -28 3 -56q101 74 144 97q93 51 179.5 51t154 -33.5t110.5 -91.5q81 -111 81 -296q0 -219 -197 -397q-118 -107 -268 -152q-74 -21 -126.5 -21t-77.5 5v-286q0 -110 -70 -176h244q-11 -1 -36 -22.5t-54 -46.5q-80 -67 -104 -67
h-244q69 91 69 216v1109q0 66 -16 88q-29 41 -82 41t-97 -19zM386 264q85 -146 260 -146q184 0 208 182q8 55 8 128.5t-18 150t-58 134.5q-89 127 -266 127q-79 0 -134 -91v-485z" />
    <glyph glyph-name="q" unicode="q" horiz-adv-x="1178" 
d="M977 -281q0 -125 -52 -191h226q-11 -1 -36 -22.5t-55 -46.5q-79 -67 -104 -67h-253q79 117 79 216v516q-100 -72 -138 -93q-87 -48 -166 -48t-154 33.5t-131 91.5q-120 123 -120 296q0 139 92 276q87 129 225 213q140 85 285.5 85t248.5 -131q46 65 168 123q30 14 52 22
q-20 -17 -48.5 -42t-54.5 -66q-64 -103 -64 -257v-908zM782 153q-1 112 -1 270t6 197q-112 220 -315 220q-174 0 -197 -170q-7 -52 -7 -128.5t29.5 -156.5t83.5 -139q117 -128 296 -128q49 0 68.5 12.5t36.5 22.5z" />
    <glyph glyph-name="r" unicode="r" horiz-adv-x="884" 
d="M970 972q-121 -178 -293 -178q-28 0 -72 22q-84 42 -113.5 42t-47.5 -19t-30 -53q-27 -74 -27 -192v-383q0 -64 39 -87q14 -9 35 -9t44 10q-20 -18 -39 -42.5t-43 -47.5q-57 -55 -135 -55q-40 0 -68 25.5t-28 62.5v576q0 35 1 70t-7 64q-19 63 -109 63q-43 0 -86 -16
q26 9 67 47q80 72 111 84q64 23 103.5 23t61 -11.5t33.5 -31.5q20 -33 20 -102q29 22 63.5 49.5t71.5 52.5q89 59 155 59q39 0 82 -22t64 -32t39 -10q40 0 108 41z" />
    <glyph glyph-name="s" unicode="s" horiz-adv-x="833" 
d="M512 776q19 14 19 30t-19 25t-44 14q-39 8 -72.5 8t-52 -3.5t-31.5 -12.5q-28 -19 -28 -67t21 -78.5t55.5 -51.5t78.5 -35t89.5 -27.5t89.5 -29.5t78 -42q77 -56 77 -154q0 -97 -93 -190q-79 -79 -208 -134q-120 -52 -214 -52q-114 0 -183 48q-25 18 -25 46.5t26 52
t61 44t70 39t53 39.5q-18 -20 -18 -45t28 -42.5t66 -27.5q66 -16 127 -16t88.5 22.5t27.5 75.5t-21 86.5t-55 57.5t-78 40.5t-89.5 32t-89.5 31.5t-78 39q-76 51 -76 133q0 78 92 167q80 76 167 119q149 72 225 72q79 0 114 -17t35 -29.5t-8 -22.5t-19.5 -18.5t-23.5 -15.5
t-34 -21t-59 -37.5t-69 -52.5z" />
    <glyph glyph-name="t" unicode="t" horiz-adv-x="682" 
d="M47 867l130 102v142q54 38 77 58t39 29t33 19q43 25 46 30v-244h320q-13 -1 -66 -48q-101 -88 -128 -88h-126v-536q0 -184 106 -213q32 -8 60 -8q46 0 78 13.5t53 24.5q-61 -93 -171 -142q-57 -25 -122.5 -25t-101.5 23t-58 60q-39 68 -39 180v623h-130z" />
    <glyph glyph-name="u" unicode="u" horiz-adv-x="1170" 
d="M670 828q161 145 236 145t75 -96v-635q0 -60 27 -90t90 -30q44 0 86 16q-33 -12 -59.5 -37.5t-56.5 -51.5q-75 -65 -171 -65q-92 0 -105 102q-3 29 -4 59q-218 -165 -387 -165q-114 0 -172 100q-52 90 -52 246v337q0 87 -15 118q-28 62 -101 62q-35 0 -71 -15
q122 109 198 138q37 15 77 15q109 0 109 -139v-67l-1 -373q0 -143 53 -210q58 -76 193 -76q66 0 137 57q18 14 32 24v528q0 74 -36 102q-15 11 -37 11t-45 -10z" />
    <glyph glyph-name="v" unicode="v" horiz-adv-x="1069" 
d="M1017 874q0 -221 -316 -690q-18 -26 -35.5 -53.5t-31 -43.5t-29.5 -27.5t-37 -25t-43.5 -27t-41.5 -25.5q-46 -31 -47 -35q-41 168 -85 333.5t-82 260t-53.5 132.5t-37.5 73q-51 84 -115 84q-35 0 -81 -27q141 166 283 166q105 0 225 -373q50 -156 76.5 -259.5
t36.5 -142.5q142 223 198 412q22 73 22 135q0 91 -70 91q-25 0 -59 -12q34 13 60 37.5t52 48.5q66 61 138.5 61t72.5 -93z" />
    <glyph glyph-name="w" unicode="w" horiz-adv-x="1532" 
d="M638 850q7 5 22.5 17.5t35 27.5t40.5 31.5t40 29.5q43 31 52.5 31t23.5 -22t27.5 -50.5t24 -55t41.5 -104.5q80 -200 161 -526q116 213 142.5 302t26.5 124.5t-4.5 65t-14.5 55.5q-26 63 -76 63q-24 0 -47 -13q26 13 55 38t59 49q75 60 111 60t55.5 -14t32.5 -35
q24 -41 24 -108t-26.5 -152.5t-67.5 -169.5q-50 -105 -121 -218.5t-85 -137.5t-24.5 -37.5t-23.5 -24t-32 -23.5t-41 -28t-42.5 -28.5t-37 -24.5t-24.5 -16q-81 342 -146 531q-41 -103 -93 -206.5t-65 -133t-23 -44.5t-23 -25t-32 -23.5t-41.5 -29t-43.5 -29.5
q-43 -27 -61 -40q-7 30 -18 83.5t-27 121.5t-35.5 145t-43.5 152.5t-51 145t-58 122.5q-66 116 -132 116q-31 0 -61 -20q92 96 197 141q38 16 62 16q35 0 59.5 -20.5t51.5 -68.5t52.5 -112t49.5 -136.5t44 -141.5q28 -97 60 -221q19 45 41 97t41 106q44 127 44 218t-55 150z
" />
    <glyph glyph-name="x" unicode="x" horiz-adv-x="1090" 
d="M884 857q-120 -167 -246 -318q62 -94 122.5 -190.5t103.5 -148.5t66.5 -69.5t43.5 -17.5q34 0 73 30q-33 -73 -111 -119q-72 -43 -155 -43q-44 0 -77 41q-63 76 -117 160.5t-108 167.5q-101 -114 -232 -214h170q-17 -4 -64 -46t-65 -56q-43 -34 -65 -34h-232
q13 9 26 17.5t27 19.5t30.5 28t33.5 33q40 38 77 38q15 0 86 77t98 106.5t47.5 53t27.5 31.5q-48 75 -95.5 147.5t-78 119.5t-47 76.5t-37.5 56.5q-50 66 -95 66q-30 0 -56 -19q202 157 260 157q26 0 54.5 -35.5t55.5 -74t56.5 -83.5t56.5 -87t48.5 -76.5t32.5 -51.5
q101 133 184 257h-144q103 89 145 112.5t49 23.5h268q-101 -87 -144.5 -111.5t-50.5 -24.5h-22z" />
    <glyph glyph-name="y" unicode="y" horiz-adv-x="1138" 
d="M792 712q0 128 -72 128q-24 0 -46 -10q113 97 161 120.5t81 23.5t52 -23t19 -59v-590q0 -335 -165 -604q-115 -187 -304 -266q-95 -40 -211 -40q-99 0 -156 44q-21 17 -21 36.5t13 36t33 33t45 32.5t49 30q60 37 77 51q-25 -20 -25 -43.5t23 -40t53 -26.5
q58 -19 120.5 -19t111 32.5t79.5 86t47.5 121t23.5 136.5q8 74 12 250q-223 -170 -387 -170q-114 0 -172 74q-52 67 -52 184v402q0 202 -116 202q-37 0 -71 -14q120 107 198 138q37 14 75.5 14t60.5 -14.5t33 -37.5q17 -37 17 -112l-1 -414q0 -142 51 -209q60 -77 195 -77
q49 0 95.5 27t73.5 67v500z" />
    <glyph glyph-name="z" unicode="z" horiz-adv-x="910" 
d="M555 136l153 -5q84 0 178 42q-37 -28 -68 -52q-67 -52 -112 -78q-75 -45 -200 -45t-249 1t-249 1q64 43 86 65.5t37.5 43.5t31 44.5t29.5 46.5t43.5 71t76.5 130t98 162q117 187 231 292q-48 -3 -97 -3l-349 10q-68 0 -137 -6q13 10 40 32t57 44q75 57 103 61q35 5 132 5
l348 -10q60 0 118 4q-81 -50 -142 -132q-87 -114 -185 -283t-118 -201t-40.5 -64.5t-42.5 -63.5q-48 -66 -103 -112h330z" />
    <glyph glyph-name="braceleft" unicode="{" horiz-adv-x="871" 
d="M245 962l-8 194q0 124 45 198t107.5 138t136.5 112q161 102 331 102h24t24 -2q-11 -2 -40 -26.5t-49.5 -42t-39.5 -32.5q-46 -35 -66 -35l-86 5q-60 0 -101 -13q-53 -71 -67 -115q-23 -68 -23 -158l7 -183q0 -177 -114 -280q-38 -35 -89 -72q188 -89 188 -240
q0 -51 -11 -114q-22 -118 -22 -185.5t30.5 -141t83.5 -129.5q116 -119 283 -119q43 0 76 7q-14 -11 -40 -32.5t-55 -43.5q-78 -56 -97 -60q-34 -7 -95.5 -7t-134.5 30.5t-127 84.5q-120 117 -120 278q0 41 12 108q25 130 25 177.5t-17 89t-46 73.5q-50 54 -154 100
q33 13 95.5 63.5t81.5 63.5q52 76 52 207z" />
    <glyph glyph-name="bar" unicode="|" horiz-adv-x="531" 
d="M362 -176q0 -21 -146 -104q-48 -27 -48 -32v1876q48 38 68.5 53.5t24.5 18.5t20 12.5t34 19.5q47 28 47 32v-1876z" />
    <glyph glyph-name="braceright" unicode="}" horiz-adv-x="870" 
d="M634 641q-189 90 -189 239q0 43 11 110q23 131 23 194t-30.5 137t-84.5 129q-115 120 -282 120q-32 0 -76 -7q150 127 189 135t99.5 8t133 -31t127.5 -84q119 -115 119 -278q0 -51 -12 -112q-24 -116 -24 -168.5t17 -94t46 -73.5q46 -50 154 -101q-112 -42 -170.5 -130
t-58.5 -203l8 -195q0 -219 -204 -388q-119 -101 -272 -142q-73 -20 -120.5 -20t-71.5 3q12 1 65.5 47.5t82 67.5t46.5 21l87 -5q60 0 101 13q75 98 86 193q4 35 4 79l-7 183q0 175 113 280q38 36 90 73z" />
    <glyph glyph-name="asciitilde" unicode="~" horiz-adv-x="1085" 
d="M811 744l13 1q31 41 83 68.5t77 41t39 31.5q-115 -144 -259 -228q-85 -50 -148 -50q-58 0 -135.5 69.5t-137.5 69.5q-8 0 -13 -1q-10 -14 -27 -43.5t-46 -49t-61 -37.5q-84 -46 -92 -59q48 96 184 209q143 119 244 119q39 0 69.5 -22t61.5 -48.5t66 -48.5t82 -22z" />
    <glyph glyph-name="nonbreakingspace" unicode="&#xa0;" horiz-adv-x="500" 
 />
    <glyph glyph-name="exclamdown" unicode="&#xa1;" horiz-adv-x="551" 
d="M432 1299l-194 -136l-105 166l194 136zM396 100q9 0 64 48v-13q-9 -8 -16.5 -14.5t-14.5 -13t-24.5 -20.5t-46 -33.5t-52.5 -34.5q-78 -49 -100 -49q-42 0 -42 94q0 43 18 362.5t32 576.5q1 10 47 35q93 51 99 60l3 -942q0 -56 33 -56z" />
    <glyph glyph-name="cent" unicode="&#xa2;" horiz-adv-x="942" 
d="M415 76l1 98q0 17 1 18q-146 -8 -241 101q-88 99 -88 234q0 202 209 354q59 43 119 82v173q0 18 59.5 53t80.5 47q51 30 54 36v-236q25 3 43 3t50 -4.5t67 -12.5q90 -19 90 -42q0 -16 -53 -60t-77 -60q-55 -36 -82 -36q14 9 14 18t-15.5 16.5t-39.5 14t-53 12t-56 9.5
q-58 7 -88.5 7t-57.5 -24.5t-43 -60.5q-30 -68 -30 -146t26.5 -139t72.5 -105q97 -94 242 -94q82 0 194 49q20 9 23 9q0 -14 -73 -61q-116 -75 -154 -91v-154q-23 -18 -46 -37t-38.5 -29.5t-31 -19.5t-32.5 -19q-44 -26 -46 -31v25z" />
    <glyph glyph-name="sterling" unicode="&#xa3;" horiz-adv-x="1256" 
d="M1175 191q-237 -191 -316 -191h-647q59 59 74 92q26 56 26 142v347h-247q159 136 194 136h51v139q0 156 14 224q28 142 110 208q125 100 194 134q124 60 261 60q90 0 152 -19t78 -28.5t16 -24.5t-24 -39t-57 -47q-74 -49 -134 -65v2q2 5 11 11t17 13q-13 30 -179 54
q-56 8 -86 8q-68 0 -132 -16q-38 -72 -43 -178.5t-4 -167.5t1 -108v-160h222q68 0 162 59q-65 -68 -132 -110q-114 -69 -251 -81v-267q0 -58 -52 -147q-14 -24 -27 -35h566q96 0 182 55z" />
    <glyph glyph-name="currency" unicode="&#xa4;" horiz-adv-x="893" 
d="M324 1008q128 73 224.5 73t173.5 -63q54 43 107.5 76.5t63.5 36.5q-1 -1 -10.5 -11.5t-24 -25t-31.5 -32t-32 -33t-27 -27.5l-14 -14q76 -83 76 -190t-96 -213l136 -133q-8 -6 -23 -18t-34.5 -27t-41 -31t-39.5 -30q-40 -29 -55 -31l-129 126q-109 -59 -198 -59t-167 51
q-12 -9 -35 -26.5t-48 -35.5q-67 -47 -84 -51l134 138q-55 49 -79 141q-7 27 -7 55t3 56.5t11 53.5q16 51 63 98h-1l-140 137q7 5 22.5 17t35.5 27t41.5 31t40.5 30q42 30 52 32zM546 513q90 0 90 150q0 119 -85 203q-85 83 -204 83q-89 0 -89 -140q0 -130 79 -213
q80 -83 209 -83z" />
    <glyph glyph-name="yen" unicode="&#xa5;" horiz-adv-x="1437" 
d="M407 494q166 136 195 136h81q-56 171 -199 412q-103 172 -204 250q-53 41 -101 41q-57 0 -122 -49q96 114 223 160q44 15 88 15q83 0 142.5 -69.5t115.5 -155t107 -178.5q107 -196 155 -360q127 157 206 324q48 99 48 145.5t-8 73.5t-24 47q-36 42 -98 42q-30 0 -54 -7
q25 7 49 30.5t52 48.5q72 64 137 64t102 -35.5t37 -89.5t-23.5 -113.5t-61 -125t-85 -132.5t-95 -129.5t-90.5 -116.5t-73 -92l163 -1q73 0 161 60q-57 -95 -179 -151q-62 -29 -151 -34v-107h169q74 0 161 59q-71 -92 -193 -150q-64 -30 -147 -36q-20 -81 -60 -135h321
q-14 -2 -67 -49q-99 -86 -127 -86h-349q57 61 74 106q26 71 26 155h-302l39 31q127 105 156 105h107v97h-302z" />
    <glyph glyph-name="brokenbar" unicode="&#xa6;" horiz-adv-x="545" 
d="M368 911q0 -18 -59.5 -53t-80.5 -48q-51 -29 -54 -35v789q0 18 59.5 53t80.5 47q51 30 54 36v-789zM368 -176q0 -18 -59.5 -53t-80.5 -47q-51 -30 -54 -36v789q0 18 59.5 53t80.5 48q51 29 54 35v-789z" />
    <glyph glyph-name="section" unicode="&#xa7;" horiz-adv-x="1201" 
d="M1031 466q81 -71 81 -186q0 -124 -116 -245q-102 -108 -260 -180q-153 -70 -275 -70q-185 0 -303 47q-82 34 -82 86q0 77 164 168q38 22 62 36q-33 -36 -33 -65t21.5 -50t54.5 -36t74.5 -25t81.5 -16q73 -11 113.5 -11t72.5 3t64 11.5t62 25t53 43.5q51 58 51 155
q0 204 -296 261q-52 10 -105 19q-131 23 -202.5 58t-119 104t-47.5 157q0 129 98 227q-72 51 -97 147q-7 29 -7 73.5t33.5 103.5t89 112t125.5 98t143 78q155 70 265 70q162 0 223 -46q14 -11 14 -24.5t-14.5 -31.5t-37 -38t-50 -40t-52.5 -37q-55 -38 -73 -42q33 26 33 45
t-17.5 30.5t-44.5 19.5t-59.5 13.5t-63.5 7.5q-56 5 -101.5 5t-87.5 -10.5t-70 -34.5q-59 -51 -59 -164q0 -129 106 -198l2 2l-2 -2q58 -37 187 -61q339 -63 440 -229q38 -62 38 -163.5t-77 -200.5zM915 527l1 25q0 131 -106 222q-127 107 -349 138q-62 8 -121 26
q-5 -30 -5 -58q0 -60 33.5 -115t72 -86t83 -51.5t94 -33.5t100.5 -22q144 -28 197 -45z" />
    <glyph glyph-name="dieresis" unicode="&#xa8;" horiz-adv-x="802" 
d="M802 1381l-194 -137l-152 142l195 136zM346 1381l-194 -137l-152 142l194 136z" />
    <glyph glyph-name="copyright" unicode="&#xa9;" horiz-adv-x="1642" 
d="M1495.5 1050.5q49.5 -104.5 49.5 -215.5t-35 -207t-95 -182.5t-141 -160t-173 -127.5q-197 -114 -385 -114q-269 0 -440 156q-176 161 -176 429q0 199 130 383q118 168 317 276q194 105 394 105q244 0 421 -162q84 -76 133.5 -180.5zM1350 701q0 117 -50.5 220.5
t-135.5 176.5q-179 155 -427 155q-346 0 -419 -292q-23 -92 -23 -214.5t49 -229.5t134 -183q175 -158 435 -158q223 0 337 151q100 134 100 374zM945 917l14 18q0 21 -119 31q-19 1 -34 1h-22q-91 -5 -137.5 -51.5t-46.5 -133t26 -139t70 -89.5q89 -75 211.5 -75t224.5 55
q-57 -51 -101 -88t-91 -61q-89 -46 -241 -46q-127 0 -210 85q-82 83 -82 210q0 116 101 232q88 101 228 171q136 67 250 67q152 0 173 -33q-29 -40 -187 -140q-18 -11 -27 -14z" />
    <glyph glyph-name="ordfeminine" unicode="&#xaa;" horiz-adv-x="989" 
d="M576 838q-145 -89 -251 -89q-91 0 -128 55q-13 20 -13 47.5t16 55.5t41.5 55t58 52t64.5 45q87 55 136.5 63.5t75.5 10.5q-2 101 -28.5 135.5t-59.5 47.5t-91 13t-118 -26q95 81 138 107q93 55 175 55t129.5 -43.5t47.5 -124.5l1 -286q0 -90 19.5 -111t38.5 -21
q27 0 55 10q-28 -10 -53.5 -33.5t-53.5 -47.5q-70 -63 -135 -63t-65 93zM88 470q166 136 194 136h572q-13 -1 -66 -48q-101 -88 -128 -88h-572zM576 1000q-52 16 -90 16q-70 0 -106 -19q-1 -4 -1 -22.5t11 -38t30 -31.5q33 -22 78 -22t78 6v111z" />
    <glyph glyph-name="guillemotleft" unicode="&#xab;" horiz-adv-x="1238" 
d="M1123 256q-11 0 -195 -136q-68 57 -116 95.5t-78.5 63t-61.5 47.5q-72 55 -112 83q22 16 52 39q53 39 103.5 72.5t76 54.5t49.5 44q26 25 66 69t63.5 62t49.5 34.5t52.5 31.5t47.5 27q-141 -162 -353 -307q232 -160 356 -280zM623 256q-11 0 -195 -136q-68 57 -116 95.5
t-78.5 63t-61.5 47.5q-72 55 -112 83q22 16 52 39q53 39 103.5 72.5t76 54.5t49.5 44q26 25 66 69t63.5 62t49.5 34.5t52.5 31.5t47.5 27q-141 -162 -353 -307q232 -160 356 -280z" />
    <glyph glyph-name="logicalnot" unicode="&#xac;" horiz-adv-x="1444" 
d="M114 708q166 136 194 136h1048q-67 -64 -82 -113q-24 -76 -24.5 -202.5t2.5 -217.5l-202 -136v228q0 152 52 237q21 35 55 68h-1043z" />
    <glyph glyph-name="uni00AD" unicode="&#xad;" horiz-adv-x="765" 
d="M638 615q-12 -1 -65.5 -47.5t-82 -67.5t-46.5 -21h-306q12 1 65.5 47.5t82 67.5t46.5 21h306z" />
    <glyph glyph-name="registered" unicode="&#xae;" horiz-adv-x="1641" 
d="M1545 814q0 -90 -34.5 -185.5t-94.5 -181.5t-140.5 -160t-173.5 -128q-196 -115 -386 -115q-272 0 -442 159q-174 162 -174 426q0 201 129 384q120 170 317 275q196 105 395 105q245 0 422 -163q182 -167 182 -416zM936 822q0 36 -23.5 64.5t-59.5 43.5q-57 25 -155 25
v-204h119q85 0 102 17.5t17 53.5zM485 329q184 -153 428 -153q220 0 333 147q104 135 104 368q0 245 -184 407q-177 155 -429 155q-344 0 -419 -290q-23 -92 -23 -213q0 -254 179 -411q30 39 30 125v491h-104q166 136 195 136h242q187 0 261 -74q30 -30 29 -71t-20.5 -71.5
t-47.5 -56.5q-38 -36 -117 -87q62 -24 165 -149q97 -118 132 -118q17 0 43 15q-36 -81 -122 -125q-45 -22 -89.5 -22t-62 13t-36.5 34.5t-48.5 60.5t-63.5 76q-83 89 -159 89q0 -64 -35 -138q9 -3 54 -3t67.5 0.5t30.5 0.5q-13 -2 -41.5 -27t-48.5 -42.5t-39 -31.5
q-45 -35 -66 -35h-138z" />
    <glyph glyph-name="macron" unicode="&#xaf;" horiz-adv-x="916" 
d="M916 1463q-13 -2 -41.5 -27t-48.5 -42.5t-39 -32.5q-44 -35 -65 -35h-722q10 1 64.5 48t83 68t46.5 21h722z" />
    <glyph glyph-name="degree" unicode="&#xb0;" horiz-adv-x="683" 
d="M535 1086q-131 -105 -188 -129t-91 -24q-70 0 -120 42q-52 43 -52 103.5t21.5 97.5t53 63.5t66 53t71.5 50.5q88 56 149 56q67 0 119 -48q51 -48 51 -122.5t-80 -142.5zM417 1068q4 16 4 37.5t-11 50t-30 50.5q-39 49 -99 57q-3 -12 -3 -33t10 -50t28 -52q41 -52 101 -60
z" />
    <glyph glyph-name="plusminus" unicode="&#xb1;" horiz-adv-x="1110" 
d="M1010 615q-13 -1 -66 -48q-101 -88 -128 -88h-167v-166q0 -13 -35 -35.5t-59.5 -37.5t-46.5 -28q-51 -29 -53 -35v302h-361q14 1 66 48q101 88 128 88h167v165q0 18 59.5 53t81.5 48q50 30 53 35v-301h361zM1010 136q-13 -1 -66 -48q-101 -88 -128 -88h-722
q12 1 65.5 47.5t82 67.5t46.5 21h722z" />
    <glyph glyph-name="twosuperior" unicode="&#xb2;" horiz-adv-x="889" 
d="M770 1360q21 -37 21 -90.5t-21.5 -100t-57 -87.5t-80.5 -77t-92 -69t-92 -64t-80 -62q-79 -67 -79 -126h495q-12 -1 -65.5 -47.5t-82 -67.5t-46.5 -21h-492q0 49 49 117t88.5 105t81.5 65t82.5 52.5t76.5 48.5t62 54q59 65 59 155q0 83 -77 135q-67 45 -155 45h-13
q-7 0 -13 -1q-15 -35 -15 -61.5t3.5 -42t7.5 -29t7.5 -23t3.5 -12.5t-12.5 -13.5t-32 -24t-43 -29t-44.5 -28.5q-39 -23 -63 -37q-22 42 -22 88q0 85 71 156q198 192 349 192q163 0 221 -100z" />
    <glyph glyph-name="threesuperior" unicode="&#xb3;" horiz-adv-x="896" 
d="M154 1304q166 136 195 136h454q-64 -92 -146 -168t-169 -146q151 -5 210.5 -34t89.5 -72t30 -98.5t-12.5 -86t-33.5 -56.5q-46 -59 -186 -149q-146 -93 -285 -93q-158 0 -213 45q-14 11 -14 29.5t27 42t62.5 45.5t70.5 42t51 36q-18 -18 -18 -37t29 -32.5t68 -21.5
q64 -12 111 -12q77 0 137 14q13 33 13 92.5t-30 103.5t-78 67q-70 34 -225 39q31 27 60 52q56 47 105 97q76 78 150 165h-453z" />
    <glyph glyph-name="acute" unicode="&#xb4;" horiz-adv-x="482" 
d="M2 1247v12q79 52 137 119q70 81 155 196q1 2 57 43t62 45.5t19 11.5t25 14t26 15q-27 -35 -56.5 -75.5t-77.5 -93.5q-105 -116 -201.5 -188t-145.5 -99z" />
    <glyph glyph-name="mu" unicode="&#xb5;" horiz-adv-x="1324" 
d="M1074 877l-2 -635q0 -60 27.5 -90t89.5 -30q44 0 86 16q-33 -12 -59.5 -37.5t-56.5 -51.5q-75 -65 -171 -65q-94 0 -105 108q-3 30 -4 60q-217 -246 -414 -127v-467q0 -18 -95 -74q-98 -56 -100 -62v1174q0 35 0.5 78t-8.5 80q-23 89 -110 89q-35 0 -71 -15
q122 109 198 138q37 15 77 15q109 0 109 -139v-67l-1 -363q0 -143 52 -210q59 -76 194 -76q89 0 134 36q18 15 35 38v525q0 74 -37 102q-14 11 -36 11t-45 -10q161 145 237 145t76 -96z" />
    <glyph glyph-name="paragraph" unicode="&#xb6;" horiz-adv-x="1398" 
d="M905 640q-64 -50 -102 -65v-538q0 -20 -137 -96q-52 -29 -58 -40v628q-15 -2 -30 -2h-67t-138 27t-153 79q-150 115 -150 302q0 215 248 385q157 108 300 117q46 3 92 3h619q-166 -136 -194 -136h-36v-1267q0 -20 -135 -96q-53 -29 -59 -40v739zM803 665q43 3 102 17v622
h-102v-639zM582 1305l-44 1q-130 0 -177.5 -26t-72.5 -72t-25 -127.5t25 -153.5t70 -127q101 -121 250 -121v626h-26z" />
    <glyph glyph-name="periodcentered" unicode="&#xb7;" horiz-adv-x="489" 
d="M397 706l-194 -136l-105 167l194 136z" />
    <glyph glyph-name="cedilla" unicode="&#xb8;" horiz-adv-x="399" 
d="M382 88q-73 -75 -98 -101.5t-34 -36t-16 -16.5l-17 -17q-9 -9 -24 -25q6 6 24 9t42 6.5t58 -3t55 -24.5q50 -40 7 -117q-61 -108 -338 -264q26 26 57 46.5t55 36.5t36.5 42.5t14.5 55.5q7 104 -127 93q-37 -3 -72 -14q-8 -3 -2 3l190 198l44 33q18 14 38 28.5t30 21.5
t22 14l24 14q31 18 31 17z" />
    <glyph glyph-name="onesuperior" unicode="&#xb9;" horiz-adv-x="676" 
d="M228 777l-1 301v258l-80 -58q-15 -11 -29.5 -21t-25.5 -18q-26 -18 -28 -18v11q0 9 51 43.5t71 48.5q41 28 52 34q14 9 76.5 46t107.5 63v-602q0 -116 -77 -160h307q-11 0 -60 -43t-68 -58q-46 -35 -66 -35h-310q24 34 39.5 54t24.5 39q16 34 16 115z" />
    <glyph glyph-name="ordmasculine" unicode="&#xba;" horiz-adv-x="981" 
d="M899.5 1286q23.5 -52 23.5 -105.5t-22 -103.5t-59 -96.5t-85.5 -86.5t-100.5 -70q-114 -65 -188.5 -65t-127.5 19t-94 54q-89 77 -89 194q0 150 164 294q98 86 209 122q54 17 108 17t106 -22.5t92 -60.5t63.5 -90zM884 606q-16 -4 -63.5 -45.5t-66.5 -56.5
q-43 -34 -64 -34h-572q12 9 39.5 31.5t58.5 46.5q75 58 96 58h572zM640 890q89 0 89 150q0 119 -85 202q-85 84 -203 84q-89 0 -89 -140q0 -125 82 -210q82 -86 206 -86z" />
    <glyph glyph-name="guillemotright" unicode="&#xbb;" horiz-adv-x="1236" 
d="M612 707q7 0 194 136q243 -201 369 -290q-76 -56 -110.5 -80.5t-65.5 -44.5t-56.5 -41t-49.5 -44t-46 -47.5t-40.5 -44.5t-42 -38t-50 -35t-52.5 -31.5t-47 -26.5q137 159 352 307q-234 164 -355 280zM112 707q7 0 194 136q243 -201 369 -290q-76 -56 -110.5 -80.5
t-65.5 -44.5t-56.5 -41t-49.5 -44t-46 -47.5t-40.5 -44.5t-42 -38t-50 -35t-52.5 -31.5t-47 -26.5q137 159 352 307q-234 164 -355 280z" />
    <glyph glyph-name="onequarter" unicode="&#xbc;" horiz-adv-x="1811" 
d="M1540 338l59 1q63 0 151 46q9 5 -4 -5q-117 -96 -165.5 -122.5t-83.5 -36.5q-12 -44 -53 -85h211q-39 -32 -64 -50.5t-31.5 -23.5t-19.5 -15.5t-27 -20.5q-34 -26 -53 -26h-224q72 47 72 129v72l-529 1q7 0 74.5 57.5t102 86.5t85.5 79.5t97 104.5q90 105 170 234
q16 25 49.5 45.5t51 32.5t43.5 26.5t50 31.5v-562h38zM1296 1637q-82 -412 -360 -913q-318 -566 -532 -789q-33 -33 -76 -56q-81 -43 -113 -73q366 440 647 1013q168 343 232 643q2 11 2.5 19.5t7 22.5t32 32t56 35.5t59.5 34t45 31.5zM252 777l-1 301v258l-80 -58
q-15 -11 -29.5 -21t-25.5 -18q-26 -18 -28 -18v11q0 9 51 43.5t71 48.5q41 28 52 34q14 9 76.5 46t107.5 63v-602q0 -116 -77 -160h307q-11 0 -60 -43t-68 -58q-46 -35 -66 -35h-310q24 34 39.5 54t24.5 39q16 34 16 115zM1308 338v302q-141 -158 -329 -302h329z" />
    <glyph glyph-name="onehalf" unicode="&#xbd;" horiz-adv-x="1770" 
d="M1664 812q22 -37 22 -90.5t-21.5 -100t-57 -87.5t-80.5 -77t-92 -69t-92 -64t-81 -62q-78 -67 -78 -126h495q-14 -2 -62 -44t-67 -57q-46 -35 -66 -35h-491q0 50 49 118t88.5 104.5t81.5 64.5t82.5 52.5t76.5 48.5t63 54q58 65 58 155q0 85 -77 135q-69 46 -156 46
q-12 0 -26 -2q-15 -35 -15 -61.5t3.5 -42t7.5 -29t7.5 -23t3.5 -12.5t-12.5 -13.5t-32 -24t-42.5 -28.5t-45 -28q-31 -20 -62 -38q-22 42 -22 88q0 87 71 156q198 192 349 192q161 0 220 -100zM1279 1637q-82 -412 -360 -913q-318 -566 -532 -789q-33 -33 -76 -56
q-81 -43 -113 -73q366 440 646 1013q169 343 233 643q2 11 2.5 19.5t7 22.5t32 32t56 35.5t59.5 34t45 31.5zM235 777l-1 301v258l-80 -58q-15 -11 -29.5 -21t-26.5 -18q-25 -18 -27 -18v11q0 9 51 43.5t70 48.5q42 28 53 34q14 9 76.5 46t107.5 63v-602q0 -116 -77 -160
h307q-11 0 -60 -43t-69 -58q-45 -35 -65 -35h-310q24 34 39.5 54t24.5 39q16 34 16 115z" />
    <glyph glyph-name="threequarters" unicode="&#xbe;" horiz-adv-x="1939" 
d="M1668 338l59 1q63 0 151 46q9 5 -4 -5q-117 -96 -165.5 -122.5t-83.5 -36.5q-12 -44 -53 -85h211q-39 -32 -64 -50.5t-31.5 -23.5t-19.5 -15.5t-27 -20.5q-34 -26 -53 -26h-224q72 47 72 129v72l-529 1q7 0 74.5 57.5t102 86.5t85.5 79.5t97 104.5q90 105 170 234
q16 25 49.5 45.5t51 32.5t43.5 26.5t50 31.5v-562h38zM1425 1637q-81 -409 -361 -913q-318 -566 -532 -789q-33 -33 -76 -56q-81 -43 -113 -73q366 440 647 1013q168 343 232 643q2 11 2.5 19.5t7 22.5t32 32t56 35.5t60 34t45.5 31.5zM167 1304q166 136 195 136h454
q-64 -92 -146 -168t-169 -146q151 -5 210.5 -34t89.5 -72t30 -98.5t-12.5 -86t-32.5 -56.5q-47 -59 -187 -149q-146 -93 -285 -93q-158 0 -214 45q-13 11 -13 29.5t27 42t62.5 45.5t70.5 42t51 36q-18 -18 -18 -37t29 -32.5t67 -21.5q65 -12 112 -12q77 0 137 14
q13 33 13 92.5t-30 103.5t-78 67q-70 34 -225 39q31 27 61 52q55 47 104 97q76 78 150 165h-453zM1436 338v302q-141 -158 -329 -302h329z" />
    <glyph glyph-name="questiondown" unicode="&#xbf;" horiz-adv-x="1042" 
d="M682 1308l-194 -136l-105 166l195 136zM775 339q0 69 -37 139l194 136q37 -71 37 -146q0 -146 -109 -255q-162 -162 -342 -221q-65 -22 -131 -22t-124.5 25.5t-100.5 70.5q-91 94 -91 229q0 142 121 267q34 35 70 68.5t70 66t61 67.5q60 79 60 163l-7 57q0 18 36 40
t61 35.5t47 24.5q50 28 50 36q8 -30 8 -71t-22 -85.5t-55 -84.5t-72.5 -75t-73 -67t-63.5 -70t-52 -81q-49 -91 -49 -170.5t28.5 -135t75.5 -94.5q97 -79 232 -79q68 0 121 57q57 62 57 175z" />
    <glyph glyph-name="Agrave" unicode="&#xc0;" horiz-adv-x="1403" 
d="M162 135q7 1 80 1q125 0 184.5 19t85.5 35q-37 -28 -68 -52q-67 -52 -107.5 -75t-80.5 -35.5t-82 -18.5q-62 -9 -169 -9h-39q1 1 1.5 2t14 16t39.5 43.5t69 85.5t93.5 147t94 183.5t83.5 189.5t82.5 192.5t86.5 195t66.5 154.5t26 70t11.5 24h-76q-186 0 -289 -42
q138 120 231 151q85 27 276 27h53q43 -143 86.5 -290t87.5 -294q96 -320 144.5 -464t57 -171.5t21.5 -49.5q29 -48 93 -48q35 0 73.5 16t59.5 29q-36 -27 -64 -49q-72 -55 -92 -67.5t-40 -24.5t-42 -22q-140 -62 -189 47q-35 77 -84 246.5t-87 288.5q-84 -60 -366 -56h-62
q-113 -226 -220 -345q-9 -10 -18 -21q-26 -30 -26 -29zM504 669l198 -4q62 0 126 4q-46 146 -137 447q-99 -227 -201 -450q12 3 14 3zM906 1675q-11 -8 -38.5 -30t-58.5 -46q-80 -60 -97 -60q-3 0 -16 9q-94 62 -155 131t-111 147l-18 29q0 11 79 65q106 71 113 71t8 -5
t9 -19q60 -102 138 -177.5t147 -114.5z" />
    <glyph glyph-name="Aacute" unicode="&#xc1;" horiz-adv-x="1403" 
d="M162 135q7 1 80 1q125 0 184.5 19t85.5 35q-37 -28 -68 -52q-67 -52 -107.5 -75t-80.5 -35.5t-82 -18.5q-62 -9 -169 -9h-39q1 1 1.5 2t14 16t39.5 43.5t69 85.5t93.5 147t94 183.5t83.5 189.5t82.5 192.5t86.5 195t66.5 154.5t26 70t11.5 24h-76q-186 0 -289 -42
q138 120 231 151q85 27 276 27h53q43 -143 86.5 -290t87.5 -294q96 -320 144.5 -464t57 -171.5t21.5 -49.5q29 -48 93 -48q35 0 73.5 16t59.5 29q-36 -27 -64 -49q-72 -55 -92 -67.5t-40 -24.5t-42 -22q-140 -62 -189 47q-35 77 -84 246.5t-87 288.5q-84 -60 -366 -56h-62
q-113 -226 -220 -345q-9 -10 -18 -21q-26 -30 -26 -29zM504 669l198 -4q62 0 126 4q-46 146 -137 447q-99 -227 -201 -450q12 3 14 3zM519 1499v12q79 52 137 119q70 81 155 196q1 2 57 43t62 45.5t19 11.5t25 14t26 15q-27 -35 -56.5 -75.5t-77.5 -93.5
q-105 -116 -201.5 -188t-145.5 -99z" />
    <glyph glyph-name="Acircumflex" unicode="&#xc2;" horiz-adv-x="1403" 
d="M162 135q7 1 80 1q125 0 184.5 19t85.5 35q-37 -28 -68 -52q-67 -52 -107.5 -75t-80.5 -35.5t-82 -18.5q-62 -9 -169 -9h-39q1 1 1.5 2t14 16t39.5 43.5t69 85.5t93.5 147t94 183.5t83.5 189.5t82.5 192.5t86.5 195t66.5 154.5t26 70t11.5 24h-76q-186 0 -289 -42
q138 120 231 151q85 27 276 27h53q43 -143 86.5 -290t87.5 -294q96 -320 144.5 -464t57 -171.5t21.5 -49.5q29 -48 93 -48q35 0 73.5 16t59.5 29q-36 -27 -64 -49q-72 -55 -92 -67.5t-40 -24.5t-42 -22q-140 -62 -189 47q-35 77 -84 246.5t-87 288.5q-84 -60 -366 -56h-62
q-113 -226 -220 -345q-9 -10 -18 -21q-26 -30 -26 -29zM504 669l198 -4q62 0 126 4q-46 146 -137 447q-99 -227 -201 -450q12 3 14 3zM1090 1664q-171 -137 -190 -137q-7 0 -101.5 103.5t-98.5 108.5l-83 -79q-11 -10 -27 -18.5t-39 -23.5q-93 -58 -123 -86l250 237
q34 34 94 75q85 58 90 58t21 -16t39 -41t50.5 -54.5t52 -55.5t42.5 -46t23 -25z" />
    <glyph glyph-name="Atilde" unicode="&#xc3;" horiz-adv-x="1403" 
d="M162 135q7 1 80 1q125 0 184.5 19t85.5 35q-37 -28 -68 -52q-67 -52 -107.5 -75t-80.5 -35.5t-82 -18.5q-62 -9 -169 -9h-39q1 1 1.5 2t14 16t39.5 43.5t69 85.5t93.5 147t94 183.5t83.5 189.5t82.5 192.5t86.5 195t66.5 154.5t26 70t11.5 24h-76q-186 0 -289 -42
q138 120 231 151q85 27 276 27h53q43 -143 86.5 -290t87.5 -294q96 -320 144.5 -464t57 -171.5t21.5 -49.5q29 -48 93 -48q35 0 73.5 16t59.5 29q-36 -27 -64 -49q-72 -55 -92 -67.5t-40 -24.5t-42 -22q-140 -62 -189 47q-35 77 -84 246.5t-87 288.5q-84 -60 -366 -56h-62
q-113 -226 -220 -345q-9 -10 -18 -21q-26 -30 -26 -29zM504 669l198 -4q62 0 126 4q-46 146 -137 447q-99 -227 -201 -450q12 3 14 3zM1171 1780q-208 -239 -406 -239q-61 0 -96.5 23t-53.5 38.5t-39 29.5q-46 32 -105 32q-60 0 -225 -129q140 203 328 254q43 11 87 11
t75.5 -19.5t63.5 -42.5q86 -62 166 -62q57 0 156 73q25 18 49 31z" />
    <glyph glyph-name="Adieresis" unicode="&#xc4;" horiz-adv-x="1403" 
d="M162 135q7 1 80 1q125 0 184.5 19t85.5 35q-37 -28 -68 -52q-67 -52 -107.5 -75t-80.5 -35.5t-82 -18.5q-62 -9 -169 -9h-39q1 1 1.5 2t14 16t39.5 43.5t69 85.5t93.5 147t94 183.5t83.5 189.5t82.5 192.5t86.5 195t66.5 154.5t26 70t11.5 24h-76q-186 0 -289 -42
q138 120 231 151q85 27 276 27h53q43 -143 86.5 -290t87.5 -294q96 -320 144.5 -464t57 -171.5t21.5 -49.5q29 -48 93 -48q35 0 73.5 16t59.5 29q-36 -27 -64 -49q-72 -55 -92 -67.5t-40 -24.5t-42 -22q-140 -62 -189 47q-35 77 -84 246.5t-87 288.5q-84 -60 -366 -56h-62
q-113 -226 -220 -345q-9 -10 -18 -21q-26 -30 -26 -29zM504 669l198 -4q62 0 126 4q-46 146 -137 447q-99 -227 -201 -450q12 3 14 3zM1110 1676l-194 -137l-152 142l195 136zM654 1676l-194 -137l-152 142l194 136z" />
    <glyph glyph-name="Aring" unicode="&#xc5;" horiz-adv-x="1401" 
d="M440 1387q-38 49 -38 100.5t19 93t50.5 80.5t72.5 74t86 61q97 57 155.5 57t96.5 -16t67 -44q63 -61 63 -145q0 -91 -106 -192q-32 -30 -68 -56q85 -279 169 -565t135.5 -437t60 -178.5t21.5 -49.5q29 -48 93 -48q51 0 89 20.5t42 22.5q-220 -183 -323 -183q-50 0 -72 24
q-44 52 -103.5 256.5t-97.5 323.5q-84 -60 -366 -56h-62q-113 -226 -220 -345q-9 -10 -18 -21q-26 -30 -26 -29q7 1 79 1t120.5 8t81 17.5t49.5 18.5l19 9q-2 -1 -12 -9t-25.5 -20t-35 -26.5t-38.5 -28.5q-72 -55 -128 -72.5t-98 -23.5q-62 -9 -169 -9h-39q5 7 43 48.5
t81 98.5t93.5 147t94 183.5t83.5 189.5t82.5 192.5t86.5 195t66.5 154.5t26 70t11.5 24h-76q-186 0 -289 -42q101 89 173 126zM502 669l198 -4q62 0 126 4q-46 146 -137 447q-99 -227 -201 -450q12 3 14 3zM804 1440q13 35 13 71t-12.5 69.5t-34.5 61.5q-58 76 -148 76
q-22 0 -24 -26q-2 -13 -2 -47t15.5 -73t42.5 -68q59 -62 150 -64zM509 189l1 1zM1448 165l2 2z" />
    <glyph glyph-name="AE" unicode="&#xc6;" horiz-adv-x="1862" 
d="M164 135q7 1 80 1q125 0 184.5 19t85.5 35q-37 -28 -68 -52q-67 -52 -107.5 -75t-80.5 -35.5t-82 -18.5q-62 -9 -169 -9h-39q1 1 1.5 2t14 16t39.5 43.5t69 85.5t93.5 147t94 183.5t83.5 189.5t82.5 192.5t86.5 195t66.5 154.5t26 70t11.5 24h-76q-186 0 -289 -42
q138 120 231 151q85 27 276 27h878q-13 -1 -66.5 -47.5t-81.5 -67.5t-46 -21h-591l72 -242t73 -243h476q-11 -1 -28 -22.5t-36 -46.5q-53 -67 -80 -67h-290q119 -392 141 -434t40 -63q42 -49 101 -49h365q57 0 162 44l19 8q-51 -61 -218 -150q-72 -38 -98 -38h-364
q-154 0 -197 114q-42 118 -78.5 235.5t-74.5 236.5q-85 -60 -365 -56h-63q-113 -226 -220 -345q-9 -10 -18 -21q-26 -30 -26 -29zM506 669l198 -4q62 0 126 4q-46 146 -137 447q-99 -227 -201 -450q12 3 14 3z" />
    <glyph glyph-name="Ccedilla" unicode="&#xc7;" horiz-adv-x="1391" 
d="M1342.5 1432q19.5 -9 19.5 -17.5t-16 -23.5t-40 -33.5t-53 -39.5t-55 -38q-62 -41 -74 -45q1 4 15 15q26 21 26 26.5t-4.5 9t-10 6t-10.5 4.5t-38 14q-79 31 -227 31t-255.5 -34.5t-182.5 -104.5q-155 -145 -155 -422q0 -281 154 -475q166 -208 436 -208q179 0 439 114
q-8 -7 -15 -13q-10 -11 -25 -23q-242 -182 -504 -212l-68 -70q7 5 24.5 8t41.5 6.5t58 -3t55 -24.5q50 -40 7 -117q-61 -108 -338 -264q26 26 57 46.5t55 36.5t36.5 42.5t14.5 55.5q7 104 -127 93q-37 -3 -72 -14q-8 -3 -2 3l187 196q-7 -1 -14 -1h-14q-269 0 -430 203
q-149 189 -149 469q0 144 42.5 243.5t99.5 177.5t129.5 144t157 118.5t175.5 89.5q187 76 377 76q107 0 180 -18.5t92.5 -27.5z" />
    <glyph glyph-name="Egrave" unicode="&#xc8;" horiz-adv-x="1132" 
d="M56 1303q166 136 194 136h826q-11 -1 -65 -47.5t-82.5 -67.5t-46.5 -21h-444v-485h485q-11 -1 -36 -22.5t-55 -46.5q-79 -67 -104 -67h-290v-326q0 -111 -34 -182q-13 -28 -34 -38h556q57 0 118 26l62 26q-51 -61 -218 -150q-72 -38 -97 -38h-638q90 122 90 239v443h-140
q87 70 140 109v512h-187zM778 1674q-11 -8 -38.5 -30t-58.5 -46q-80 -60 -97 -60q-3 0 -16 9q-94 62 -155 131t-111 147l-18 29q0 11 79 65q106 71 113 71t8 -5t9 -19q60 -102 138 -177.5t147 -114.5z" />
    <glyph glyph-name="Eacute" unicode="&#xc9;" horiz-adv-x="1132" 
d="M56 1303q166 136 194 136h826q-11 -1 -65 -47.5t-82.5 -67.5t-46.5 -21h-444v-485h485q-11 -1 -36 -22.5t-55 -46.5q-79 -67 -104 -67h-290v-326q0 -111 -34 -182q-13 -28 -34 -38h556q57 0 118 26l62 26q-51 -61 -218 -150q-72 -38 -97 -38h-638q90 122 90 239v443h-140
q87 70 140 109v512h-187zM441 1490v12q79 52 137 119q70 81 155 196q1 2 57 43t62 45.5t19 11.5t25 14t26 15q-27 -35 -56.5 -75.5t-77.5 -93.5q-105 -116 -201.5 -188t-145.5 -99z" />
    <glyph glyph-name="Ecircumflex" unicode="&#xca;" horiz-adv-x="1132" 
d="M56 1303q166 136 194 136h826q-11 -1 -65 -47.5t-82.5 -67.5t-46.5 -21h-444v-485h485q-11 -1 -36 -22.5t-55 -46.5q-79 -67 -104 -67h-290v-326q0 -111 -34 -182q-13 -28 -34 -38h556q57 0 118 26l62 26q-51 -61 -218 -150q-72 -38 -97 -38h-638q90 122 90 239v443h-140
q87 70 140 109v512h-187zM962 1668q-171 -137 -190 -137q-7 0 -101.5 103.5t-98.5 108.5l-83 -79q-11 -10 -27 -18.5t-39 -23.5q-93 -58 -123 -86l250 237q34 34 94 75q85 58 90 58t21 -16t39 -41t50.5 -54.5t52 -55.5t42.5 -46t23 -25z" />
    <glyph glyph-name="Edieresis" unicode="&#xcb;" horiz-adv-x="1132" 
d="M56 1303q166 136 194 136h826q-11 -1 -65 -47.5t-82.5 -67.5t-46.5 -21h-444v-485h485q-11 -1 -36 -22.5t-55 -46.5q-79 -67 -104 -67h-290v-326q0 -111 -34 -182q-13 -28 -34 -38h556q57 0 118 26l62 26q-51 -61 -218 -150q-72 -38 -97 -38h-638q90 122 90 239v443h-140
q87 70 140 109v512h-187zM982 1677l-194 -137l-152 142l195 136zM526 1677l-194 -137l-152 142l194 136z" />
    <glyph glyph-name="Igrave" unicode="&#xcc;" horiz-adv-x="734" 
d="M60 1303q166 136 194 136h456q-13 -2 -61 -44t-68 -57q-45 -35 -65 -35h-74v-915q0 -173 -72 -252h321q-14 -2 -62 -44t-68 -57q-45 -35 -65 -35h-339q53 53 67 90q23 59 23 149v1064h-187zM572 1676q-11 -8 -38.5 -30t-58.5 -46q-80 -60 -97 -60q-3 0 -16 9
q-94 62 -155 131t-111 147l-18 29q0 11 79 65q106 71 113 71t8 -5t9 -19q60 -102 138 -177.5t147 -114.5z" />
    <glyph glyph-name="Iacute" unicode="&#xcd;" horiz-adv-x="735" 
d="M60 1303q166 136 194 136h456q-13 -2 -61 -44t-68 -57q-45 -35 -65 -35h-74v-915q0 -173 -72 -252h321q-14 -2 -62 -44t-68 -57q-45 -35 -65 -35h-339q53 53 67 90q23 59 23 149v1064h-187zM254 1534v12q79 52 137 119q70 81 155 196q1 2 57 43t62 45.5t19 11.5t25 14
t26 15q-27 -35 -56.5 -75.5t-77.5 -93.5q-105 -116 -201.5 -188t-145.5 -99z" />
    <glyph glyph-name="Icircumflex" unicode="&#xce;" horiz-adv-x="735" 
d="M60 1303q166 136 194 136h456q-13 -2 -61 -44t-68 -57q-45 -35 -65 -35h-74v-915q0 -173 -72 -252h321q-14 -2 -62 -44t-68 -57q-45 -35 -65 -35h-339q53 53 67 90q23 59 23 149v1064h-187zM716 1677q-171 -137 -190 -137q-7 0 -101.5 103.5t-98.5 108.5l-83 -79
q-11 -10 -27 -18.5t-39 -23.5q-93 -58 -123 -86l250 237q34 34 94 75q85 58 90 58t21 -16t39 -41t50.5 -54.5t52 -55.5t42.5 -46t23 -25z" />
    <glyph glyph-name="Idieresis" unicode="&#xcf;" horiz-adv-x="735" 
d="M60 1303q166 136 194 136h456q-13 -2 -61 -44t-68 -57q-45 -35 -65 -35h-74v-915q0 -173 -72 -252h321q-14 -2 -62 -44t-68 -57q-45 -35 -65 -35h-339q53 53 67 90q23 59 23 149v1064h-187zM787 1677l-194 -137l-152 142l195 136zM331 1677l-194 -137l-152 142l194 136z
" />
    <glyph glyph-name="Eth" unicode="&#xd0;" horiz-adv-x="1554" 
d="M1459 784q0 -123 -39.5 -232t-108 -197t-161.5 -154.5t-200 -110.5q-214 -90 -453 -90h-322q76 79 76 285v334h-220q12 1 65.5 47.5t82 67.5t46.5 21h26v548h-220q16 4 68 50q99 86 126 86l444 1q332 0 547 -150q243 -169 243 -506zM1232 413q34 96 34 226.5t-26.5 229.5
t-76.5 172.5t-122 123.5t-163 81q-172 57 -433 57v-548h302q-13 -1 -66 -48q-101 -88 -128 -88h-108v-280q0 -102 -31 -155q-12 -21 -33 -51h333q417 0 518 280z" />
    <glyph glyph-name="Ntilde" unicode="&#xd1;" horiz-adv-x="1824" 
d="M1401 343q23 266 23 504.5t-19 455.5h-178q12 9 39.5 31.5t57.5 45.5q76 59 97 59h377q-22 -7 -67.5 -48t-71 -61t-50.5 -26q2 -24 2 -48v-48l-3 -223q0 -368 -79 -778q-2 -10 -4 -24t-5 -29q-5 -35 -12 -50.5t-27 -35t-44 -38.5q-28 -24 -85 -64q-12 75 -86 167
q-357 446 -805 944v-493q0 -293 -45 -379q-25 -45 -46 -69h323q-12 -9 -39.5 -31.5t-57.5 -46.5q-76 -58 -97 -58h-329q86 124 98 326q4 58 4 318.5t-22 658.5h-227q12 9 39.5 31.5t57.5 45.5q76 59 97 59h377q-26 -9 -52 -34t-35 -33q268 -284 456.5 -507.5t272.5 -321
t165 -200.5zM1373 1783q-208 -239 -406 -239q-61 0 -96.5 23t-53.5 38.5t-39 29.5q-46 32 -105 32q-60 0 -225 -129q140 203 328 254q43 11 87 11t75.5 -19.5t63.5 -42.5q86 -62 166 -62q57 0 156 73q25 18 49 31z" />
    <glyph glyph-name="Ograve" unicode="&#xd2;" horiz-adv-x="1756" 
d="M1673 834q0 -103 -35 -215.5t-96.5 -215t-146.5 -191.5t-185 -154q-214 -139 -437 -139q-315 0 -499 183q-185 183 -185 497q0 237 131 445q124 199 332 318q211 121 449 121q274 0 471 -181q201 -185 201 -468zM1478 674q0 139 -48.5 265.5t-137.5 216.5
q-186 187 -495 187q-403 0 -487 -339q-26 -107 -26 -254t45.5 -278.5t133.5 -225.5q184 -195 508 -195q259 0 391 180q116 158 116 443zM1078 1709q-11 -8 -38.5 -30t-58.5 -46q-80 -60 -97 -60q-3 0 -16 9q-94 62 -155 131t-111 147l-18 29q0 11 79 65q106 71 113 71t8 -5
t9 -19q60 -102 138 -177.5t147 -114.5z" />
    <glyph glyph-name="Oacute" unicode="&#xd3;" horiz-adv-x="1756" 
d="M1673 834q0 -103 -35 -215.5t-96.5 -215t-146.5 -191.5t-185 -154q-214 -139 -437 -139q-315 0 -499 183q-185 183 -185 497q0 237 131 445q124 199 332 318q211 121 449 121q274 0 471 -181q201 -185 201 -468zM1478 674q0 139 -48.5 265.5t-137.5 216.5
q-186 187 -495 187q-403 0 -487 -339q-26 -107 -26 -254t45.5 -278.5t133.5 -225.5q184 -195 508 -195q259 0 391 180q116 158 116 443zM691 1560v12q79 52 137 119q70 81 155 196q1 2 57 43t62 45.5t19 11.5t25 14t26 15q-27 -35 -56.5 -75.5t-77.5 -93.5
q-105 -116 -201.5 -188t-145.5 -99z" />
    <glyph glyph-name="Ocircumflex" unicode="&#xd4;" horiz-adv-x="1756" 
d="M1673 834q0 -103 -35 -215.5t-96.5 -215t-146.5 -191.5t-185 -154q-214 -139 -437 -139q-315 0 -499 183q-185 183 -185 497q0 237 131 445q124 199 332 318q211 121 449 121q274 0 471 -181q201 -185 201 -468zM1478 674q0 139 -48.5 265.5t-137.5 216.5
q-186 187 -495 187q-403 0 -487 -339q-26 -107 -26 -254t45.5 -278.5t133.5 -225.5q184 -195 508 -195q259 0 391 180q116 158 116 443zM1262 1695q-171 -137 -190 -137q-7 0 -101.5 103.5t-98.5 108.5l-83 -79q-11 -10 -27 -18.5t-39 -23.5q-93 -58 -123 -86l250 237
q34 34 94 75q85 58 90 58t21 -16t39 -41t50.5 -54.5t52 -55.5t42.5 -46t23 -25z" />
    <glyph glyph-name="Otilde" unicode="&#xd5;" horiz-adv-x="1756" 
d="M1673 834q0 -103 -35 -215.5t-96.5 -215t-146.5 -191.5t-185 -154q-214 -139 -437 -139q-315 0 -499 183q-185 183 -185 497q0 237 131 445q124 199 332 318q211 121 449 121q274 0 471 -181q201 -185 201 -468zM1478 674q0 139 -48.5 265.5t-137.5 216.5
q-186 187 -495 187q-403 0 -487 -339q-26 -107 -26 -254t45.5 -278.5t133.5 -225.5q184 -195 508 -195q259 0 391 180q116 158 116 443zM1343 1816q-208 -239 -406 -239q-61 0 -96.5 23t-53.5 38.5t-39 29.5q-46 32 -105 32q-60 0 -225 -129q140 203 328 254q43 11 87 11
t75.5 -19.5t63.5 -42.5q86 -62 166 -62q57 0 156 73q25 18 49 31z" />
    <glyph glyph-name="Odieresis" unicode="&#xd6;" horiz-adv-x="1756" 
d="M1673 834q0 -103 -35 -215.5t-96.5 -215t-146.5 -191.5t-185 -154q-214 -139 -437 -139q-315 0 -499 183q-185 183 -185 497q0 237 131 445q124 199 332 318q211 121 449 121q274 0 471 -181q201 -185 201 -468zM1478 674q0 139 -48.5 265.5t-137.5 216.5
q-186 187 -495 187q-403 0 -487 -339q-26 -107 -26 -254t45.5 -278.5t133.5 -225.5q184 -195 508 -195q259 0 391 180q116 158 116 443zM1282 1714l-194 -137l-152 142l195 136zM826 1714l-194 -137l-152 142l194 136z" />
    <glyph glyph-name="multiply" unicode="&#xd7;" horiz-adv-x="968" 
d="M837 866q-118 -154 -254 -288q122 -118 257 -218q-9 2 -37.5 -23.5t-49.5 -43.5t-41 -34q-45 -37 -55.5 -37t-28 13t-42 33t-53 44t-53.5 46t-44 39.5t-26 23.5q-164 -138 -269 -199q-1 0 -2.5 5.5t-3.5 9.5q48 26 139.5 104t114.5 101q-140 137 -235 267l-19 25
q0 9 194 136q111 -169 219 -257q26 31 50 62t46 58t49 44t55 31q72 37 89 58z" />
    <glyph glyph-name="Oslash" unicode="&#xd8;" horiz-adv-x="1756" 
d="M1339 1624q-45 -136 -68 -195q181 -75 289 -226q113 -159 113 -359q0 -221 -131 -440q-128 -214 -332 -346q-214 -139 -437 -139q-125 0 -230 30q-26 -22 -68 -45q-81 -43 -101 -64q45 72 82 139q-265 113 -342 410q-25 97 -25 214t34.5 230t96 211t146.5 179t186 139
q211 121 449 121q63 0 137 -13q14 36 41 54.5t57 34.5q84 46 103 65zM650 114q140 -63 299.5 -63t255.5 48.5t157 131.5q116 158 116 428q0 193 -74 339.5t-208 234.5q-231 -575 -446 -947q-24 -41 -50 -86t-50 -86zM1071 1296q-124 47 -271 47t-245 -40.5t-158 -115.5
q-113 -141 -113 -423q0 -202 70.5 -355.5t205.5 -244.5q252 457 465 1012q24 63 46 120z" />
    <glyph glyph-name="Ugrave" unicode="&#xd9;" horiz-adv-x="1724" 
d="M1728 1440q-21 -6 -46 -28t-52 -46q-68 -62 -97 -62h-74v-915q0 -110 -45 -199q-15 -31 -36 -53h330q-24 -7 -73.5 -52.5t-75 -64.5t-46.5 -19h-328q60 84 69.5 131t10.5 83q-159 -115 -258 -159q-186 -83 -328 -83t-227 35t-136 100q-97 122 -97 366v830h-169
q12 9 39 31.5t58 46.5q77 58 97 58h417q-24 -7 -73.5 -52.5t-75 -64.5t-46.5 -19h-53v-773q0 -204 124 -315q119 -105 326 -105q141 0 315 87q50 25 87 53v1053h-188q12 9 39.5 31.5t58.5 46.5q77 58 97 58h456zM1036 1540q-11 -8 -38.5 -30t-58.5 -46q-80 -60 -97 -60
q-3 0 -16 9q-94 62 -155 131t-111 147l-18 29q0 11 79 65q106 71 113 71t8 -5t9 -19q60 -102 138 -177.5t147 -114.5z" />
    <glyph glyph-name="Uacute" unicode="&#xda;" horiz-adv-x="1724" 
d="M1728 1440q-21 -6 -46 -28t-52 -46q-68 -62 -97 -62h-74v-915q0 -110 -45 -199q-15 -31 -36 -53h330q-24 -7 -73.5 -52.5t-75 -64.5t-46.5 -19h-328q60 84 69.5 131t10.5 83q-159 -115 -258 -159q-186 -83 -328 -83t-227 35t-136 100q-97 122 -97 366v830h-169
q12 9 39 31.5t58 46.5q77 58 97 58h417q-24 -7 -73.5 -52.5t-75 -64.5t-46.5 -19h-53v-773q0 -204 124 -315q119 -105 326 -105q141 0 315 87q50 25 87 53v1053h-188q12 9 39.5 31.5t58.5 46.5q77 58 97 58h456zM750 1347v12q79 52 137 119q70 81 155 196q1 2 57 43t62 45.5
t19 11.5t25 14t26 15q-27 -35 -56.5 -75.5t-77.5 -93.5q-105 -116 -201.5 -188t-145.5 -99z" />
    <glyph glyph-name="Ucircumflex" unicode="&#xdb;" horiz-adv-x="1724" 
d="M1728 1440q-21 -6 -46 -28t-52 -46q-68 -62 -97 -62h-74v-915q0 -110 -45 -199q-15 -31 -36 -53h330q-24 -7 -73.5 -52.5t-75 -64.5t-46.5 -19h-328q60 84 69.5 131t10.5 83q-159 -115 -258 -159q-186 -83 -328 -83t-227 35t-136 100q-97 122 -97 366v830h-169
q12 9 39 31.5t58 46.5q77 58 97 58h417q-24 -7 -73.5 -52.5t-75 -64.5t-46.5 -19h-53v-773q0 -204 124 -315q119 -105 326 -105q141 0 315 87q50 25 87 53v1053h-188q12 9 39.5 31.5t58.5 46.5q77 58 97 58h456zM1270 1671q-171 -137 -190 -137q-7 0 -101.5 103.5
t-98.5 108.5l-83 -79q-11 -10 -27 -18.5t-39 -23.5q-93 -58 -123 -86l250 237q34 34 94 75q85 58 90 58t21 -16t39 -41t50.5 -54.5t52 -55.5t42.5 -46t23 -25z" />
    <glyph glyph-name="Udieresis" unicode="&#xdc;" horiz-adv-x="1724" 
d="M1728 1440q-21 -6 -46 -28t-52 -46q-68 -62 -97 -62h-74v-915q0 -110 -45 -199q-15 -31 -36 -53h330q-24 -7 -73.5 -52.5t-75 -64.5t-46.5 -19h-328q60 84 69.5 131t10.5 83q-159 -115 -258 -159q-186 -83 -328 -83t-227 35t-136 100q-97 122 -97 366v830h-169
q12 9 39 31.5t58 46.5q77 58 97 58h417q-24 -7 -73.5 -52.5t-75 -64.5t-46.5 -19h-53v-773q0 -204 124 -315q119 -105 326 -105q141 0 315 87q50 25 87 53v1053h-188q12 9 39.5 31.5t58.5 46.5q77 58 97 58h456zM1290 1673l-194 -137l-152 142l195 136zM834 1673l-194 -137
l-152 142l194 136z" />
    <glyph glyph-name="Yacute" unicode="&#xdd;" horiz-adv-x="1257" 
d="M748 354q0 -116 -70 -219h321q-13 -2 -66 -48q-101 -87 -128 -87h-349q100 104 100 257v253q0 97 -114 333q-119 245 -248 385q-96 105 -168 105q-47 0 -122 -49q157 175 309 175q85 0 151 -77q147 -173 280 -452q62 -132 91 -234q190 248 241 411q13 42 13 73.5t-8 58.5
t-25 47q-35 42 -97 42q-30 0 -54 -7q22 6 46.5 29.5t52.5 48.5q75 65 139.5 65t101.5 -35.5t37 -90t-24.5 -115.5t-63 -127.5t-87 -135t-96.5 -131.5t-91.5 -116.5t-71.5 -89.5v-269zM623 1347v12q79 52 137 119q70 81 155 196q1 2 57 43t62 45.5t19 11.5t25 14t26 15
q-27 -35 -56.5 -75.5t-77.5 -93.5q-105 -116 -201.5 -188t-145.5 -99z" />
    <glyph glyph-name="Thorn" unicode="&#xde;" horiz-adv-x="1226" 
d="M22 1065q166 136 194 136h36v140q81 67 106.5 81t41.5 24q42 24 47 31v-276h306q178 0 298 -87q135 -99 135 -270q0 -157 -124 -290q-84 -90 -261 -190q-138 -76 -299 -76q-35 0 -69 4q-20 -92 -93 -157h315q-14 -2 -67 -49q-99 -86 -127 -86h-317l26 22q73 61 80 174
q2 34 2 70v799h-230zM447 472q145 -46 242.5 -46t147.5 13.5t85 44.5q69 61 69 201q0 335 -371 373q-63 7 -130 7h-43v-593z" />
    <glyph glyph-name="germandbls" unicode="&#xdf;" horiz-adv-x="1275" 
d="M382 310q0 -98 -63 -174h164q-12 -9 -39 -31.5t-58 -46.5q-77 -58 -97 -58h-185q52 41 68 92t16 114v651h-126l126 99q0 207 10.5 272.5t29.5 113t54 91.5q66 84 218 184q146 95 270 95q161 0 257 -124q86 -110 86 -271q0 -187 -179 -333q-115 -95 -146.5 -135
t-31.5 -83.5t21 -74t55.5 -51.5t78.5 -35t89.5 -27.5t89.5 -29.5t78 -42q77 -56 77 -154q0 -97 -93 -190q-79 -79 -208 -134q-120 -52 -214 -52q-114 0 -183 48q-25 18 -25 46.5t26 52t60.5 44t70 39.5t53.5 39q-18 -18 -18 -39.5t13.5 -35.5t34.5 -24t47 -16t51 -10
q48 -6 92 -6q99 0 99 102q0 120 -154 180q-44 17 -89.5 32t-89.5 31.5t-78 38.5q-76 51 -76 134q0 48 26.5 86t66 74.5t85.5 77.5t86 96q92 127 92 302q0 124 -112 219q-107 90 -233 90q-64 0 -106 -13q-80 -110 -85 -314q-2 -57 -2 -109v-831z" />
    <glyph glyph-name="agrave" unicode="&#xe0;" horiz-adv-x="930" 
d="M753 296l-2 -70q0 -78 44 -99q17 -8 39 -8q35 0 72 16q-38 -16 -66 -42t-57 -51q-72 -60 -145 -60t-78 84q-2 22 -2 44q-180 -125 -330 -125q-127 0 -176 77q-18 28 -18 77t30 98.5t76 90.5q82 76 198 125q86 37 221 42v44q0 159 -29 215t-75 82.5t-108 26.5
q-105 0 -185 -41q110 91 161 120q105 59 190.5 59t128.5 -25t68 -66q43 -72 43 -207v-407zM339 127q32 -8 95 -8t125 30v210h-162q-87 0 -152 -12q-13 -43 -13 -82t13.5 -67t37.5 -45.5t56 -25.5zM667 1228q-11 -8 -38.5 -30t-58.5 -46q-80 -60 -97 -60q-3 0 -16 9
q-94 62 -155 131t-111 147l-18 29q0 11 79 65q106 71 113 71t8 -5t9 -19q60 -102 138 -177.5t147 -114.5z" />
    <glyph glyph-name="aacute" unicode="&#xe1;" horiz-adv-x="930" 
d="M753 296l-2 -70q0 -78 44 -99q17 -8 39 -8q35 0 72 16q-38 -16 -66 -42t-57 -51q-72 -60 -145 -60t-78 84q-2 22 -2 44q-180 -125 -330 -125q-127 0 -176 77q-18 28 -18 77t30 98.5t76 90.5q82 76 198 125q86 37 221 42v44q0 159 -29 215t-75 82.5t-108 26.5
q-105 0 -185 -41q110 91 161 120q105 59 190.5 59t128.5 -25t68 -66q43 -72 43 -207v-407zM339 127q32 -8 95 -8t125 30v210h-162q-87 0 -152 -12q-13 -43 -13 -82t13.5 -67t37.5 -45.5t56 -25.5zM280 1035v12q79 52 137 119q70 81 155 196q1 2 57 43t62 45.5t19 11.5t25 14
t26 15q-27 -35 -56.5 -75.5t-77.5 -93.5q-105 -116 -201.5 -188t-145.5 -99z" />
    <glyph glyph-name="acircumflex" unicode="&#xe2;" horiz-adv-x="930" 
d="M753 296l-2 -70q0 -78 44 -99q17 -8 39 -8q35 0 72 16q-38 -16 -66 -42t-57 -51q-72 -60 -145 -60t-78 84q-2 22 -2 44q-180 -125 -330 -125q-127 0 -176 77q-18 28 -18 77t30 98.5t76 90.5q82 76 198 125q86 37 221 42v44q0 159 -29 215t-75 82.5t-108 26.5
q-105 0 -185 -41q110 91 161 120q105 59 190.5 59t128.5 -25t68 -66q43 -72 43 -207v-407zM339 127q32 -8 95 -8t125 30v210h-162q-87 0 -152 -12q-13 -43 -13 -82t13.5 -67t37.5 -45.5t56 -25.5zM851 1220q-171 -137 -190 -137q-7 0 -101.5 103.5t-98.5 108.5l-83 -79
q-11 -10 -27 -18.5t-39 -23.5q-93 -58 -123 -86l250 237q34 34 94 75q85 58 90 58t21 -16t39 -41t50.5 -54.5t52 -55.5t42.5 -46t23 -25z" />
    <glyph glyph-name="atilde" unicode="&#xe3;" horiz-adv-x="930" 
d="M755 296l-2 -70q0 -78 44 -99q17 -8 39 -8q35 0 72 16q-38 -16 -66 -42t-57 -51q-72 -60 -145 -60t-78 84q-2 22 -2 44q-180 -125 -330 -125q-127 0 -176 77q-18 28 -18 77t30 98.5t76 90.5q82 76 198 125q86 37 221 42v44q0 159 -29 215t-75 82.5t-108 26.5
q-105 0 -185 -41q110 91 161 120q105 59 190.5 59t128.5 -25t68 -66q43 -72 43 -207v-407zM341 127q32 -8 95 -8t125 30v210h-162q-87 0 -152 -12q-13 -43 -13 -82t13.5 -67t37.5 -45.5t56 -25.5zM935 1344q-208 -239 -406 -239q-61 0 -96.5 23t-53.5 38.5t-39 29.5
q-46 32 -105 32q-60 0 -225 -129q140 203 328 254q43 11 87 11t75.5 -19.5t63.5 -42.5q86 -62 166 -62q57 0 156 73q25 18 49 31z" />
    <glyph glyph-name="adieresis" unicode="&#xe4;" horiz-adv-x="930" 
d="M753 296l-2 -70q0 -78 44 -99q17 -8 39 -8q35 0 72 16q-38 -16 -66 -42t-57 -51q-72 -60 -145 -60t-78 84q-2 22 -2 44q-180 -125 -330 -125q-127 0 -176 77q-18 28 -18 77t30 98.5t76 90.5q82 76 198 125q86 37 221 42v44q0 159 -29 215t-75 82.5t-108 26.5
q-105 0 -185 -41q110 91 161 120q105 59 190.5 59t128.5 -25t68 -66q43 -72 43 -207v-407zM339 127q32 -8 95 -8t125 30v210h-162q-87 0 -152 -12q-13 -43 -13 -82t13.5 -67t37.5 -45.5t56 -25.5zM871 1241l-194 -137l-152 142l195 136zM415 1241l-194 -137l-152 142
l194 136z" />
    <glyph glyph-name="aring" unicode="&#xe5;" horiz-adv-x="930" 
d="M753 296l-2 -70q0 -78 44 -99q17 -8 39 -8q35 0 72 16q-38 -16 -66 -42t-57 -51q-72 -60 -145 -60t-78 84q-2 22 -2 44q-180 -125 -330 -125q-127 0 -176 77q-18 28 -18 77t30 98.5t76 90.5q82 76 198 125q86 37 221 42v44q0 159 -29 215t-75 82.5t-108 26.5
q-105 0 -185 -41q110 91 161 120q105 59 190.5 59t128.5 -25t68 -66q43 -72 43 -207v-407zM339 127q32 -8 95 -8t125 30v210h-162q-87 0 -152 -12q-13 -43 -13 -82t13.5 -67t37.5 -45.5t56 -25.5zM758 1485.5q17 -37.5 17 -77t-19 -79t-51 -77t-73.5 -71t-85.5 -58.5
q-96 -56 -153.5 -56t-95.5 13.5t-68 38.5q-64 53 -64 139q0 114 142 235q83 70 151 94t108.5 24t78.5 -16t67 -44t46 -65.5zM567 1198q13 35 13 71t-12.5 69.5t-34.5 61.5q-58 76 -148 76q-22 0 -24 -25q-2 -14 -2 -48t15.5 -73t42.5 -68q59 -62 150 -64z" />
    <glyph glyph-name="ae" unicode="&#xe6;" horiz-adv-x="1361" 
d="M532 1001q192 0 218 -208q118 125 250 171q49 16 89 16t65.5 -12t43.5 -32q39 -43 39 -98t-24 -101.5t-62.5 -90.5t-88 -84.5t-100.5 -75.5q-74 -50 -185 -113q32 -121 113.5 -186.5t208.5 -65.5q117 0 222 64q-118 -140 -317 -185q-62 -14 -121 -14q-175 0 -262 163
q-47 -29 -92 -58t-93 -53q-108 -53 -206 -53q-128 0 -176 78q-18 28 -18 76t30 98t76 91q140 128 306 156q55 9 113 11v44q0 159 -29 215t-75 82.5t-108 26.5q-105 0 -185 -41q102 87 158 118q110 61 210 61zM1019 586.5q27 42.5 27 83t-9 69t-27 51.5q-39 50 -100 50
q-152 0 -152 -310q0 -55 9 -109q104 28 164.5 75.5t87.5 90zM561 231v128h-159q-98 0 -155 -12q-13 -43 -13 -82t13.5 -67t37.5 -46q46 -33 125 -33q51 0 86 22q65 41 65 90z" />
    <glyph glyph-name="ccedilla" unicode="&#xe7;" horiz-adv-x="946" 
d="M717 774q20 20 20 30t-13.5 19t-35 16.5t-47.5 14t-50 10.5q-51 10 -98 10t-95.5 -28.5t-77.5 -75.5q-51 -84 -51 -203.5t26 -197t76 -133.5q105 -116 297 -116q121 0 229 60q-131 -140 -321 -182l-102 -105q7 5 24.5 8t41.5 6.5t58 -3t56 -24.5q49 -40 6 -117
q-61 -108 -338 -264q26 26 57 46.5t55 36.5t36.5 42.5t14.5 55.5q7 104 -127 93q-37 -3 -72 -14q-8 -3 -2 3l190 198q15 12 35 27q-26 -3 -50 -3q-178 0 -284 117q-103 113 -103 293q0 146 101 294q149 216 393 294q76 25 138 25q146 0 218 -54q8 -6 8 -16q0 -36 -146 -130
q-52 -33 -67 -33z" />
    <glyph glyph-name="egrave" unicode="&#xe8;" horiz-adv-x="874" 
d="M834 185q-137 -153 -340 -191q-47 -8 -116 -8t-130 38.5t-100 99.5q-74 118 -74 288q0 112 86 248q84 134 205 224q130 96 246 96q60 0 101 -44q38 -43 38 -98t-24 -101.5t-62.5 -90.5t-88 -84.5t-101.5 -75.5q-73 -50 -184 -113q32 -121 113 -186.5t209 -65.5
q108 0 222 64zM532 586q27 43 27 84t-9 69.5t-26 50.5q-39 50 -101 50q-152 0 -152 -310q0 -55 9 -109q176 49 252 165zM651 1213q-11 -8 -38.5 -30t-58.5 -46q-80 -60 -97 -60q-3 0 -16 9q-94 62 -155 131t-111 147l-18 29q0 11 79 65q106 71 113 71t8 -5t9 -19
q60 -102 138 -177.5t147 -114.5z" />
    <glyph glyph-name="eacute" unicode="&#xe9;" horiz-adv-x="871" 
d="M832 185q-137 -153 -340 -191q-47 -8 -116 -8t-130 38.5t-100 99.5q-74 118 -74 288q0 112 86 248q84 134 205 224q130 96 246 96q60 0 101 -44q38 -43 38 -98t-24 -101.5t-62.5 -90.5t-88 -84.5t-101.5 -75.5q-73 -50 -184 -113q32 -121 113 -186.5t209 -65.5
q108 0 222 64zM530 586q27 43 27 84t-9 69.5t-26 50.5q-39 50 -101 50q-152 0 -152 -310q0 -55 9 -109q176 49 252 165zM261 934v12q79 52 137 119q70 81 155 196q1 2 57 43t62 45.5t19 11.5t25 14t26 15q-27 -35 -56.5 -75.5t-77.5 -93.5q-105 -116 -201.5 -188t-145.5 -99
z" />
    <glyph glyph-name="ecircumflex" unicode="&#xea;" horiz-adv-x="874" 
d="M834 185q-137 -153 -340 -191q-47 -8 -116 -8t-130 38.5t-100 99.5q-74 118 -74 288q0 112 86 248q84 134 205 224q130 96 246 96q60 0 101 -44q38 -43 38 -98t-24 -101.5t-62.5 -90.5t-88 -84.5t-101.5 -75.5q-73 -50 -184 -113q32 -121 113 -186.5t209 -65.5
q108 0 222 64zM532 586q27 43 27 84t-9 69.5t-26 50.5q-39 50 -101 50q-152 0 -152 -310q0 -55 9 -109q176 49 252 165zM835 1186q-171 -137 -190 -137q-7 0 -101.5 103.5t-98.5 108.5l-83 -79q-11 -10 -27 -18.5t-39 -23.5q-93 -58 -123 -86l250 237q34 34 94 75
q85 58 90 58t21 -16t39 -41t50.5 -54.5t52 -55.5t42.5 -46t23 -25z" />
    <glyph glyph-name="edieresis" unicode="&#xeb;" horiz-adv-x="873" 
d="M834 185q-137 -153 -340 -191q-47 -8 -116 -8t-130 38.5t-100 99.5q-74 118 -74 288q0 112 86 248q84 134 205 224q130 96 246 96q60 0 101 -44q38 -43 38 -98t-24 -101.5t-62.5 -90.5t-88 -84.5t-101.5 -75.5q-73 -50 -184 -113q32 -121 113 -186.5t209 -65.5
q108 0 222 64zM532 586q27 43 27 84t-9 69.5t-26 50.5q-39 50 -101 50q-152 0 -152 -310q0 -55 9 -109q176 49 252 165zM855 1209l-194 -137l-152 142l195 136zM399 1209l-194 -137l-152 142l194 136z" />
    <glyph glyph-name="igrave" unicode="&#xec;" horiz-adv-x="578" 
d="M581 123q-30 -24 -58.5 -49t-59.5 -46q-72 -47 -138 -47q-62 0 -87 19q-51 38 -51 140v474q0 108 -39 140q-18 15 -39 15t-35.5 -2.5t-29.5 -5.5t-31 -6q50 39 93.5 70t74.5 52t86 59.5t114 69.5v-706q0 -102 13 -129q28 -55 124 -55q26 0 63 7zM494 1188
q-11 -8 -38.5 -30t-58.5 -46q-80 -60 -97 -60q-3 0 -16 9q-94 62 -155 131t-111 147l-18 29q0 11 79 65q106 71 113 71t8 -5t9 -19q60 -102 138 -177.5t147 -114.5z" />
    <glyph glyph-name="iacute" unicode="&#xed;" horiz-adv-x="578" 
d="M583 123q-30 -24 -58.5 -49t-59.5 -46q-72 -47 -138 -47q-62 0 -87 19q-51 38 -51 140v474q0 108 -39 140q-18 15 -39 15t-35.5 -2.5t-29.5 -5.5t-31 -6q50 39 93.5 70t74.5 52t86 59.5t114 69.5v-706q0 -102 13 -129q28 -55 124 -55q26 0 63 7zM109 972v12
q79 52 137 119q70 81 155 196q1 2 57 43t62 45.5t19 11.5t25 14t26 15q-27 -35 -56.5 -75.5t-77.5 -93.5q-105 -116 -201.5 -188t-145.5 -99z" />
    <glyph glyph-name="icircumflex" unicode="&#xee;" horiz-adv-x="577" 
d="M581 123q-30 -24 -58.5 -49t-59.5 -46q-72 -47 -138 -47q-62 0 -87 19q-51 38 -51 140v474q0 108 -39 140q-18 15 -39 15t-35.5 -2.5t-29.5 -5.5t-31 -6q50 39 93.5 70t74.5 52t86 59.5t114 69.5v-706q0 -102 13 -129q28 -55 124 -55q26 0 63 7zM629 1224
q-171 -137 -190 -137q-7 0 -101.5 103.5t-98.5 108.5l-83 -79q-11 -10 -27 -18.5t-39 -23.5q-93 -58 -123 -86l250 237q34 34 94 75q85 58 90 58t21 -16t39 -41t50.5 -54.5t52 -55.5t42.5 -46t23 -25z" />
    <glyph glyph-name="idieresis" unicode="&#xef;" horiz-adv-x="577" 
d="M581 123q-30 -24 -58.5 -49t-59.5 -46q-72 -47 -138 -47q-62 0 -87 19q-51 38 -51 140v474q0 108 -39 140q-18 15 -39 15t-35.5 -2.5t-29.5 -5.5t-31 -6q50 39 93.5 70t74.5 52t86 59.5t114 69.5v-706q0 -102 13 -129q28 -55 124 -55q26 0 63 7zM699 1235l-194 -137
l-152 142l195 136zM243 1235l-194 -137l-152 142l194 136z" />
    <glyph glyph-name="eth" unicode="&#xf0;" horiz-adv-x="1130" 
d="M308 1182q166 136 195 136h25q-101 111 -238 198l5 -1q9 0 56 43.5t65 59.5q43 35 54.5 35t20 -4.5t23 -15t64 -45.5t121 -109t128.5 -161h291q-15 -3 -68 -50q-99 -86 -127 -86h-20q129 -272 129 -639q0 -150 -86 -273q-40 -57 -121.5 -123.5t-134.5 -98.5
q-206 -122 -381 -36q-143 69 -205 224q-29 74 -29 164.5t36.5 183t112.5 160.5q244 221 424 221q53 0 101 -15q-45 122 -116 232h-325zM451 831q-97 0 -145 -94q-37 -75 -37 -173.5t26.5 -177.5t76.5 -140q110 -136 284 -136q101 0 147 99q34 73 34 175q0 192 -108 319.5
t-278 127.5z" />
    <glyph glyph-name="ntilde" unicode="&#xf1;" horiz-adv-x="1143" 
d="M190 68l1 643q0 67 -18 90q-31 40 -86 40t-98 -16q26 10 68 47q77 71 109 83q60 24 105.5 24t68 -15t32.5 -40q13 -31 13 -118q187 165 350 165q89 0 155 -56q69 -60 69 -146v-494q0 -74 16 -102q30 -53 100 -53q40 0 76 15q-89 -77 -123 -99q-78 -51 -136.5 -51t-83 21
t-34.5 53q-11 35 -11 143v374q0 179 -117 236q-42 20 -101 20q-145 0 -157 -215q-3 -54 -3 -97v-309q0 -64 39 -87q14 -9 35 -9t44 10q-21 -18 -50 -43t-61 -48q-79 -54 -126 -54q-76 0 -76 88zM1032 1316q-208 -239 -406 -239q-61 0 -96.5 23t-53.5 38.5t-39 29.5
q-46 32 -105 32q-60 0 -225 -129q140 203 328 254q43 11 87 11t75.5 -19.5t63.5 -42.5q86 -62 166 -62q57 0 156 73q25 18 49 31z" />
    <glyph glyph-name="ograve" unicode="&#xf2;" 
d="M1001.5 731.5q28.5 -74.5 28.5 -149.5t-22 -146.5t-61.5 -137.5t-93 -123.5t-117.5 -100.5q-136 -91 -275 -91q-163 0 -277 127q-111 122 -111 286q0 140 85 281q127 214 346 289q70 25 148 25t148.5 -34.5t121.5 -92.5t79.5 -132.5zM449 857q-100 0 -146 -97
q-36 -76 -36 -172t25.5 -178.5t75.5 -147.5q111 -146 286 -146q102 0 148 102q33 76 33 175q0 193 -107.5 328.5t-278.5 135.5zM748 1228q-11 -8 -38.5 -30t-58.5 -46q-80 -60 -97 -60q-3 0 -16 9q-94 62 -155 131t-111 147l-18 29q0 11 79 65q106 71 113 71t8 -5t9 -19
q60 -102 138 -177.5t147 -114.5z" />
    <glyph glyph-name="oacute" unicode="&#xf3;" 
d="M1001.5 731.5q28.5 -74.5 28.5 -149.5t-22 -146.5t-61.5 -137.5t-93 -123.5t-117.5 -100.5q-136 -91 -275 -91q-163 0 -277 127q-111 122 -111 286q0 140 85 281q127 214 346 289q70 25 148 25t148.5 -34.5t121.5 -92.5t79.5 -132.5zM449 857q-100 0 -146 -97
q-36 -76 -36 -172t25.5 -178.5t75.5 -147.5q111 -146 286 -146q102 0 148 102q33 76 33 175q0 193 -107.5 328.5t-278.5 135.5zM361 1019v12q79 52 137 119q70 81 155 196q1 2 57 43t62 45.5t19 11.5t25 14t26 15q-27 -35 -56.5 -75.5t-77.5 -93.5q-105 -116 -201.5 -188
t-145.5 -99z" />
    <glyph glyph-name="ocircumflex" unicode="&#xf4;" 
d="M1001.5 731.5q28.5 -74.5 28.5 -149.5t-22 -146.5t-61.5 -137.5t-93 -123.5t-117.5 -100.5q-136 -91 -275 -91q-163 0 -277 127q-111 122 -111 286q0 140 85 281q127 214 346 289q70 25 148 25t148.5 -34.5t121.5 -92.5t79.5 -132.5zM449 857q-100 0 -146 -97
q-36 -76 -36 -172t25.5 -178.5t75.5 -147.5q111 -146 286 -146q102 0 148 102q33 76 33 175q0 193 -107.5 328.5t-278.5 135.5zM932 1236q-171 -137 -190 -137q-7 0 -101.5 103.5t-98.5 108.5l-83 -79q-11 -10 -27 -18.5t-39 -23.5q-93 -58 -123 -86l250 237q34 34 94 75
q85 58 90 58t21 -16t39 -41t50.5 -54.5t52 -55.5t42.5 -46t23 -25z" />
    <glyph glyph-name="otilde" unicode="&#xf5;" 
d="M1001.5 731.5q28.5 -74.5 28.5 -149.5t-22 -146.5t-61.5 -137.5t-93 -123.5t-117.5 -100.5q-136 -91 -275 -91q-163 0 -277 127q-111 122 -111 286q0 140 85 281q127 214 346 289q70 25 148 25t148.5 -34.5t121.5 -92.5t79.5 -132.5zM449 857q-100 0 -146 -97
q-36 -76 -36 -172t25.5 -178.5t75.5 -147.5q111 -146 286 -146q102 0 148 102q33 76 33 175q0 193 -107.5 328.5t-278.5 135.5zM1014 1331q-208 -239 -406 -239q-61 0 -96.5 23t-53.5 38.5t-39 29.5q-46 32 -105 32q-60 0 -225 -129q140 203 328 254q43 11 87 11t75.5 -19.5
t63.5 -42.5q86 -62 166 -62q57 0 156 73q25 18 49 31z" />
    <glyph glyph-name="odieresis" unicode="&#xf6;" 
d="M1001.5 731.5q28.5 -74.5 28.5 -149.5t-22 -146.5t-61.5 -137.5t-93 -123.5t-117.5 -100.5q-136 -91 -275 -91q-163 0 -277 127q-111 122 -111 286q0 140 85 281q127 214 346 289q70 25 148 25t148.5 -34.5t121.5 -92.5t79.5 -132.5zM449 857q-100 0 -146 -97
q-36 -76 -36 -172t25.5 -178.5t75.5 -147.5q111 -146 286 -146q102 0 148 102q33 76 33 175q0 193 -107.5 328.5t-278.5 135.5zM952 1227l-194 -137l-152 142l195 136zM496 1227l-194 -137l-152 142l194 136z" />
    <glyph glyph-name="divide" unicode="&#xf7;" horiz-adv-x="1056" 
d="M683 833l-194 -136l-104 167l194 136zM992 615q-16 -4 -63.5 -45.5t-66.5 -56.5q-43 -34 -64 -34h-722q14 2 67 49q100 87 127 87h722zM683 244l-194 -136l-104 167l194 136z" />
    <glyph glyph-name="oslash" unicode="&#xf8;" 
d="M930 1126q-36 -97 -79 -199q81 -56 131 -153q48 -92 48 -180t-22 -159t-61.5 -137t-93 -123.5t-117.5 -100.5q-136 -91 -275 -91q-76 0 -143 30q-24 -18 -67 -38q-80 -37 -105 -61q81 122 95 144q-120 89 -157 241q-11 48 -11 108t22.5 132t62 138t94 123.5t118.5 99.5
q137 91 277 91q36 0 76 -8q8 37 90 79q33 17 66 32.5t51 31.5zM443 187q93 -71 211 -71q102 0 148 102q33 76 33 172q0 183 -91 310q-118 -230 -301 -513zM367 264q152 261 277 534q-90 59 -195 59q-98 0 -145 -97q-37 -75 -37 -171q0 -191 100 -325z" />
    <glyph glyph-name="ugrave" unicode="&#xf9;" horiz-adv-x="1170" 
d="M670 828q161 145 236 145t75 -96v-635q0 -60 27 -90t90 -30q44 0 86 16q-33 -12 -59.5 -37.5t-56.5 -51.5q-75 -65 -171 -65q-92 0 -105 102q-3 29 -4 59q-218 -165 -387 -165q-114 0 -172 100q-52 90 -52 246v337q0 87 -15 118q-28 62 -101 62q-35 0 -71 -15
q122 109 198 138q37 15 77 15q109 0 109 -139v-67l-1 -373q0 -143 53 -210q58 -76 193 -76q66 0 137 57q18 14 32 24v528q0 74 -36 102q-15 11 -37 11t-45 -10zM744 1128q-11 -8 -38.5 -30t-58.5 -46q-80 -60 -97 -60q-3 0 -16 9q-94 62 -155 131t-111 147l-18 29
q0 11 79 65q106 71 113 71t8 -5t9 -19q60 -102 138 -177.5t147 -114.5z" />
    <glyph glyph-name="uacute" unicode="&#xfa;" horiz-adv-x="1170" 
d="M670 828q161 145 236 145t75 -96v-635q0 -60 27 -90t90 -30q44 0 86 16q-33 -12 -59.5 -37.5t-56.5 -51.5q-75 -65 -171 -65q-92 0 -105 102q-3 29 -4 59q-218 -165 -387 -165q-114 0 -172 100q-52 90 -52 246v337q0 87 -15 118q-28 62 -101 62q-35 0 -71 -15
q122 109 198 138q37 15 77 15q109 0 109 -139v-67l-1 -373q0 -143 53 -210q58 -76 193 -76q66 0 137 57q18 14 32 24v528q0 74 -36 102q-15 11 -37 11t-45 -10zM547 965v12q79 52 137 119q70 81 155 196q1 2 57 43t62 45.5t19 11.5t25 14t26 15q-27 -35 -56.5 -75.5
t-77.5 -93.5q-105 -116 -201.5 -188t-145.5 -99z" />
    <glyph glyph-name="ucircumflex" unicode="&#xfb;" horiz-adv-x="1170" 
d="M670 828q161 145 236 145t75 -96v-635q0 -60 27 -90t90 -30q44 0 86 16q-33 -12 -59.5 -37.5t-56.5 -51.5q-75 -65 -171 -65q-92 0 -105 102q-3 29 -4 59q-218 -165 -387 -165q-114 0 -172 100q-52 90 -52 246v337q0 87 -15 118q-28 62 -101 62q-35 0 -71 -15
q122 109 198 138q37 15 77 15q109 0 109 -139v-67l-1 -373q0 -143 53 -210q58 -76 193 -76q66 0 137 57q18 14 32 24v528q0 74 -36 102q-15 11 -37 11t-45 -10zM968 1223q-171 -137 -190 -137q-7 0 -101.5 103.5t-98.5 108.5l-83 -79q-11 -10 -27 -18.5t-39 -23.5
q-93 -58 -123 -86l250 237q34 34 94 75q85 58 90 58t21 -16t39 -41t50.5 -54.5t52 -55.5t42.5 -46t23 -25z" />
    <glyph glyph-name="udieresis" unicode="&#xfc;" horiz-adv-x="1170" 
d="M670 828q161 145 236 145t75 -96v-635q0 -60 27 -90t90 -30q44 0 86 16q-33 -12 -59.5 -37.5t-56.5 -51.5q-75 -65 -171 -65q-92 0 -105 102q-3 29 -4 59q-218 -165 -387 -165q-114 0 -172 100q-52 90 -52 246v337q0 87 -15 118q-28 62 -101 62q-35 0 -71 -15
q122 109 198 138q37 15 77 15q109 0 109 -139v-67l-1 -373q0 -143 53 -210q58 -76 193 -76q66 0 137 57q18 14 32 24v528q0 74 -36 102q-15 11 -37 11t-45 -10zM988 1221l-194 -137l-152 142l195 136zM532 1221l-194 -137l-152 142l194 136z" />
    <glyph glyph-name="yacute" unicode="&#xfd;" horiz-adv-x="1138" 
d="M792 712q0 128 -72 128q-24 0 -46 -10q113 97 161 120.5t81 23.5t52 -23t19 -59v-590q0 -335 -165 -604q-115 -187 -304 -266q-95 -40 -211 -40q-99 0 -156 44q-21 17 -21 36.5t13 36t33 33t45 32.5t49 30q60 37 77 51q-25 -20 -25 -43.5t23 -40t53 -26.5
q58 -19 120.5 -19t111 32.5t79.5 86t47.5 121t23.5 136.5q8 74 12 250q-223 -170 -387 -170q-114 0 -172 74q-52 67 -52 184v402q0 202 -116 202q-37 0 -71 -14q120 107 198 138q37 14 75.5 14t60.5 -14.5t33 -37.5q17 -37 17 -112l-1 -414q0 -142 51 -209q60 -77 195 -77
q49 0 95.5 27t73.5 67v500zM540 908v12q79 52 137 119q70 81 155 196q1 2 57 43t62 45.5t19 11.5t25 14t26 15q-27 -35 -56.5 -75.5t-77.5 -93.5q-105 -116 -201.5 -188t-145.5 -99z" />
    <glyph glyph-name="thorn" unicode="&#xfe;" horiz-adv-x="1100" 
d="M117 -608q42 75 42 218v1531q0 118 -43 159q-20 19 -50 19q-48 0 -103 -24q175 157 289 157q89 0 98 -146q3 -37 3 -68v-386q101 74 144 97q93 51 179.5 51t153.5 -33.5t110 -90.5q82 -110 82 -297q0 -207 -88 -316q-128 -151 -334 -239q-146 -62 -247 -40v-251
q0 -145 -72 -205h246q-15 -3 -68 -50q-99 -86 -126 -86h-216zM353 258q86 -146 260 -146q185 0 209 186q7 55 7 126.5t-18 152.5t-59 145q-89 142 -265 142q-84 0 -134 -91v-515z" />
    <glyph glyph-name="ydieresis" unicode="&#xff;" horiz-adv-x="1138" 
d="M792 712q0 128 -72 128q-24 0 -46 -10q113 97 161 120.5t81 23.5t52 -23t19 -59v-590q0 -335 -165 -604q-115 -187 -304 -266q-95 -40 -211 -40q-99 0 -156 44q-21 17 -21 36.5t13 36t33 33t45 32.5t49 30q60 37 77 51q-25 -20 -25 -43.5t23 -40t53 -26.5
q58 -19 120.5 -19t111 32.5t79.5 86t47.5 121t23.5 136.5q8 74 12 250q-223 -170 -387 -170q-114 0 -172 74q-52 67 -52 184v402q0 202 -116 202q-37 0 -71 -14q120 107 198 138q37 14 75.5 14t60.5 -14.5t33 -37.5q17 -37 17 -112l-1 -414q0 -142 51 -209q60 -77 195 -77
q49 0 95.5 27t73.5 67v500zM941 1218l-194 -137l-152 142l195 136zM485 1218l-194 -137l-152 142l194 136z" />
    <glyph glyph-name="Amacron" unicode="&#x100;" horiz-adv-x="1403" 
d="M162 135q7 1 80 1q125 0 184.5 19t85.5 35q-37 -28 -68 -52q-67 -52 -107.5 -75t-80.5 -35.5t-82 -18.5q-62 -9 -169 -9h-39q1 1 1.5 2t14 16t39.5 43.5t69 85.5t93.5 147t94 183.5t83.5 189.5t82.5 192.5t86.5 195t66.5 154.5t26 70t11.5 24h-76q-186 0 -289 -42
q138 120 231 151q85 27 276 27h53q43 -143 86.5 -290t87.5 -294q96 -320 144.5 -464t57 -171.5t21.5 -49.5q29 -48 93 -48q35 0 73.5 16t59.5 29q-36 -27 -64 -49q-72 -55 -92 -67.5t-40 -24.5t-42 -22q-140 -62 -189 47q-35 77 -84 246.5t-87 288.5q-84 -60 -366 -56h-62
q-113 -226 -220 -345q-9 -10 -18 -21q-26 -30 -26 -29zM504 669l198 -4q62 0 126 4q-46 146 -137 447q-99 -227 -201 -450q12 3 14 3zM1159 1666q-13 -2 -41.5 -27t-48.5 -42.5t-39 -32.5q-44 -35 -65 -35h-722q10 1 64.5 48t83 68t46.5 21h722z" />
    <glyph glyph-name="amacron" unicode="&#x101;" horiz-adv-x="930" 
d="M753 296l-2 -70q0 -78 44 -99q17 -8 39 -8q35 0 72 16q-38 -16 -66 -42t-57 -51q-72 -60 -145 -60t-78 84q-2 22 -2 44q-180 -125 -330 -125q-127 0 -176 77q-18 28 -18 77t30 98.5t76 90.5q82 76 198 125q86 37 221 42v44q0 159 -29 215t-75 82.5t-108 26.5
q-105 0 -185 -41q110 91 161 120q105 59 190.5 59t128.5 -25t68 -66q43 -72 43 -207v-407zM339 127q32 -8 95 -8t125 30v210h-162q-87 0 -152 -12q-13 -43 -13 -82t13.5 -67t37.5 -45.5t56 -25.5zM923 1249q-13 -2 -41.5 -27t-48.5 -42.5t-39 -32.5q-44 -35 -65 -35h-722
q10 1 64.5 48t83 68t46.5 21h722z" />
    <glyph glyph-name="Abreve" unicode="&#x102;" horiz-adv-x="1403" 
d="M162 135q7 1 80 1q125 0 184.5 19t85.5 35q-37 -28 -68 -52q-67 -52 -107.5 -75t-80.5 -35.5t-82 -18.5q-62 -9 -169 -9h-39q1 1 1.5 2t14 16t39.5 43.5t69 85.5t93.5 147t94 183.5t83.5 189.5t82.5 192.5t86.5 195t66.5 154.5t26 70t11.5 24h-76q-186 0 -289 -42
q138 120 231 151q85 27 276 27h53q43 -143 86.5 -290t87.5 -294q96 -320 144.5 -464t57 -171.5t21.5 -49.5q29 -48 93 -48q35 0 73.5 16t59.5 29q-36 -27 -64 -49q-72 -55 -92 -67.5t-40 -24.5t-42 -22q-140 -62 -189 47q-35 77 -84 246.5t-87 288.5q-84 -60 -366 -56h-62
q-113 -226 -220 -345q-9 -10 -18 -21q-26 -30 -26 -29zM504 669l198 -4q62 0 126 4q-46 146 -137 447q-99 -227 -201 -450q12 3 14 3zM1085 1895q-3 -129 -166 -256q-97 -76 -173.5 -100t-121.5 -24t-87 15t-78 41q-83 60 -138 179q-4 7 -4 12t14 17.5t35.5 26.5t46.5 28.5
t46 27.5q51 29 52 33q66 -159 184 -223q43 -24 79.5 -24t55.5 14t31 32q22 32 27 55.5t32.5 42.5t61.5 38.5t64.5 36.5t38.5 28z" />
    <glyph glyph-name="abreve" unicode="&#x103;" horiz-adv-x="930" 
d="M753 296l-2 -70q0 -78 44 -99q17 -8 39 -8q35 0 72 16q-38 -16 -66 -42t-57 -51q-72 -60 -145 -60t-78 84q-2 22 -2 44q-180 -125 -330 -125q-127 0 -176 77q-18 28 -18 77t30 98.5t76 90.5q82 76 198 125q86 37 221 42v44q0 159 -29 215t-75 82.5t-108 26.5
q-105 0 -185 -41q110 91 161 120q105 59 190.5 59t128.5 -25t68 -66q43 -72 43 -207v-407zM339 127q32 -8 95 -8t125 30v210h-162q-87 0 -152 -12q-13 -43 -13 -82t13.5 -67t37.5 -45.5t56 -25.5zM849 1459q-3 -129 -166 -256q-97 -76 -173.5 -100t-121.5 -24t-87 15t-78 41
q-83 60 -138 179q-4 7 -4 12t14 17.5t35.5 26.5t46.5 28.5t46 27.5q51 29 52 33q66 -159 184 -223q43 -24 79.5 -24t55.5 14t31 32q22 32 27 55.5t32.5 42.5t61.5 38.5t64.5 36.5t38.5 28z" />
    <glyph glyph-name="Aogonek" unicode="&#x104;" horiz-adv-x="1403" 
d="M162 135q7 1 79 1t120.5 8t81 17.5t49.5 18.5l19 9q-2 -1 -12 -9t-25.5 -20t-35 -26.5t-38.5 -28.5q-72 -55 -128 -72.5t-98 -23.5q-62 -9 -169 -9h-39q5 7 43 48.5t81 98.5t93.5 147t94 183.5t83.5 189.5t82.5 192.5t86.5 195t66.5 154.5t26 70t11.5 24h-76
q-186 0 -289 -42q138 120 231 151q85 27 276 27h53q43 -143 86.5 -290t87.5 -294q96 -320 144.5 -464t57 -171.5t21.5 -49.5q29 -48 93 -48q51 0 89 20.5t42 22.5q-209 -175 -311 -182q-48 -71 -48 -122t14.5 -83.5t38.5 -57.5q53 -54 125 -54q50 0 140 57q22 14 43 24v-1
q0 -20 -194 -144q-114 -73 -187 -73q-67 0 -119 56q-50 54 -50 123q0 157 179 283q-30 12 -45.5 40t-42.5 104.5t-64 204t-75 246.5q-84 -60 -366 -56h-62q-113 -226 -220 -345q-9 -10 -18 -21q-26 -30 -26 -29zM504 669l198 -4q62 0 126 4q-46 146 -137 447
q-99 -227 -201 -450q12 3 14 3zM511 189l1 1zM1450 165l2 2z" />
    <glyph glyph-name="aogonek" unicode="&#x105;" horiz-adv-x="930" 
d="M753 296l-2 -70q0 -78 44 -99q17 -8 39 -8q34 0 67 14q-34 -16 -60.5 -39.5t-53.5 -47.5q-66 -57 -129 -63q-49 -69 -49 -121t14.5 -84.5t38.5 -57.5q53 -54 125 -54q50 0 140 57q22 14 43 24v-1q0 -20 -194 -144q-114 -73 -187 -73q-67 0 -119 56q-50 54 -50 123
q0 154 178 283q-40 20 -40 119q-180 -125 -330 -125q-127 0 -176 77q-18 28 -18 77t30 98.5t76 90.5q82 76 198 125q86 37 221 42v44q0 159 -29 215t-75 82.5t-108 26.5q-105 0 -185 -41q110 91 161 120q105 59 190.5 59t128.5 -25t68 -66q43 -72 43 -207v-407zM339 127
q32 -8 95 -8t125 30v210h-162q-87 0 -152 -12q-13 -43 -13 -82t13.5 -67t37.5 -45.5t56 -25.5zM906 135q-4 -2 -5 -2q1 0 5 2z" />
    <glyph glyph-name="Cacute" unicode="&#x106;" horiz-adv-x="1391" 
d="M1342.5 1432q19.5 -9 19.5 -17.5t-16 -23.5t-40 -33.5t-53 -39.5t-55 -38q-62 -41 -74 -45q1 4 15 15q26 21 26 26.5t-4.5 9t-10 6t-10.5 4.5t-38 14q-79 31 -227 31t-255.5 -34.5t-182.5 -104.5q-155 -145 -155 -422q0 -281 154 -475q166 -208 436 -208q179 0 439 114
q-8 -7 -15 -13q-10 -11 -25 -23q-291 -218 -603 -218q-269 0 -430 203q-149 189 -149 469q0 144 42.5 243.5t99.5 177.5t129.5 144t157 118.5t175.5 89.5q187 76 377 76q107 0 180 -18.5t92.5 -27.5zM640 1468v12q79 52 137 119q70 81 155 196q1 2 57 43t62 45.5t19 11.5
t25 14t26 15q-27 -35 -56.5 -75.5t-77.5 -93.5q-105 -116 -201.5 -188t-145.5 -99z" />
    <glyph glyph-name="cacute" unicode="&#x107;" horiz-adv-x="946" 
d="M717 774q20 20 20 30t-13.5 19t-35 16.5t-47.5 14t-50 10.5q-51 10 -98 10t-95.5 -28.5t-77.5 -75.5q-51 -84 -51 -203.5t26 -197t76 -133.5q105 -116 297 -116q121 0 229 60q-126 -136 -319 -182q-61 -14 -135 -14t-146 31t-122 86q-103 113 -103 293q0 146 101 294
q149 216 393 294q76 25 138 25q146 0 218 -54q8 -6 8 -16q0 -36 -146 -130q-52 -33 -67 -33zM402 1012v12q79 52 137 119q70 81 155 196q1 2 57 43t62 45.5t19 11.5t25 14t26 15q-27 -35 -56.5 -75.5t-77.5 -93.5q-105 -116 -201.5 -188t-145.5 -99z" />
    <glyph glyph-name="Ccircumflex" unicode="&#x108;" horiz-adv-x="1391" 
d="M1342.5 1432q19.5 -9 19.5 -17.5t-16 -23.5t-40 -33.5t-53 -39.5t-55 -38q-62 -41 -74 -45q1 4 15 15q26 21 26 26.5t-4.5 9t-10 6t-10.5 4.5t-38 14q-79 31 -227 31t-255.5 -34.5t-182.5 -104.5q-155 -145 -155 -422q0 -281 154 -475q166 -208 436 -208q179 0 439 114
q-8 -7 -15 -13q-10 -11 -25 -23q-291 -218 -603 -218q-269 0 -430 203q-149 189 -149 469q0 144 42.5 243.5t99.5 177.5t129.5 144t157 118.5t175.5 89.5q187 76 377 76q107 0 180 -18.5t92.5 -27.5zM1127 1688q-171 -137 -190 -137q-7 0 -101.5 103.5t-98.5 108.5l-83 -79
q-11 -10 -27 -18.5t-39 -23.5q-93 -58 -123 -86l250 237q34 34 94 75q85 58 90 58t21 -16t39 -41t50.5 -54.5t52 -55.5t42.5 -46t23 -25z" />
    <glyph glyph-name="ccircumflex" unicode="&#x109;" horiz-adv-x="946" 
d="M717 774q20 20 20 30t-13.5 19t-35 16.5t-47.5 14t-50 10.5q-51 10 -98 10t-95.5 -28.5t-77.5 -75.5q-51 -84 -51 -203.5t26 -197t76 -133.5q105 -116 297 -116q121 0 229 60q-126 -136 -319 -182q-61 -14 -135 -14t-146 31t-122 86q-103 113 -103 293q0 146 101 294
q149 216 393 294q76 25 138 25q146 0 218 -54q8 -6 8 -16q0 -36 -146 -130q-52 -33 -67 -33zM804 1198q-171 -137 -190 -137q-7 0 -101.5 103.5t-98.5 108.5l-83 -79q-11 -10 -27 -18.5t-39 -23.5q-93 -58 -123 -86l250 237q34 34 94 75q85 58 90 58t21 -16t39 -41
t50.5 -54.5t52 -55.5t42.5 -46t23 -25z" />
    <glyph glyph-name="Cdotaccent" unicode="&#x10a;" horiz-adv-x="1391" 
d="M1342.5 1432q19.5 -9 19.5 -17.5t-16 -23.5t-40 -33.5t-53 -39.5t-55 -38q-62 -41 -74 -45q1 4 15 15q26 21 26 26.5t-4.5 9t-10 6t-10.5 4.5t-38 14q-79 31 -227 31t-255.5 -34.5t-182.5 -104.5q-155 -145 -155 -422q0 -281 154 -475q166 -208 436 -208q179 0 439 114
q-8 -7 -15 -13q-10 -11 -25 -23q-291 -218 -603 -218q-269 0 -430 203q-149 189 -149 469q0 144 42.5 243.5t99.5 177.5t129.5 144t157 118.5t175.5 89.5q187 76 377 76q107 0 180 -18.5t92.5 -27.5zM868 1620l-194 -137l-152 142l194 136z" />
    <glyph glyph-name="cdotaccent" unicode="&#x10b;" horiz-adv-x="946" 
d="M717 774q20 20 20 30t-13.5 19t-35 16.5t-47.5 14t-50 10.5q-51 10 -98 10t-95.5 -28.5t-77.5 -75.5q-51 -84 -51 -203.5t26 -197t76 -133.5q105 -116 297 -116q121 0 229 60q-126 -136 -319 -182q-61 -14 -135 -14t-146 31t-122 86q-103 113 -103 293q0 146 101 294
q149 216 393 294q76 25 138 25q146 0 218 -54q8 -6 8 -16q0 -36 -146 -130q-52 -33 -67 -33zM646 1168l-194 -137l-152 142l194 136z" />
    <glyph glyph-name="Ccaron" unicode="&#x10c;" horiz-adv-x="1391" 
d="M1342.5 1432q19.5 -9 19.5 -17.5t-16 -23.5t-40 -33.5t-53 -39.5t-55 -38q-62 -41 -74 -45q1 4 15 15q26 21 26 26.5t-4.5 9t-10 6t-10.5 4.5t-38 14q-79 31 -227 31t-255.5 -34.5t-182.5 -104.5q-155 -145 -155 -422q0 -281 154 -475q166 -208 436 -208q179 0 439 114
q-8 -7 -15 -13q-10 -11 -25 -23q-291 -218 -603 -218q-269 0 -430 203q-149 189 -149 469q0 144 42.5 243.5t99.5 177.5t129.5 144t157 118.5t175.5 89.5q187 76 377 76q107 0 180 -18.5t92.5 -27.5zM364 1691q171 137 190 137q7 0 101.5 -103.5t98.5 -108.5l83 79
q11 10 27 18.5t39 22.5q93 59 123 88l-250 -238q-104 -87 -143.5 -110t-42.5 -23t-19 16t-39 41t-50.5 54.5t-52 56t-42.5 46t-23 24.5z" />
    <glyph glyph-name="ccaron" unicode="&#x10d;" horiz-adv-x="946" 
d="M717 774q20 20 20 30t-13.5 19t-35 16.5t-47.5 14t-50 10.5q-51 10 -98 10t-95.5 -28.5t-77.5 -75.5q-51 -84 -51 -203.5t26 -197t76 -133.5q105 -116 297 -116q121 0 229 60q-126 -136 -319 -182q-61 -14 -135 -14t-146 31t-122 86q-103 113 -103 293q0 146 101 294
q149 216 393 294q76 25 138 25q146 0 218 -54q8 -6 8 -16q0 -36 -146 -130q-52 -33 -67 -33zM142 1240q171 137 190 137q7 0 101.5 -103.5t98.5 -108.5l83 79q11 10 27 18.5t39 22.5q93 59 123 88l-250 -238q-104 -87 -143.5 -110t-42.5 -23t-19 16t-39 41t-50.5 54.5
t-52 56t-42.5 46t-23 24.5z" />
    <glyph glyph-name="Dcaron" unicode="&#x10e;" horiz-adv-x="1553" 
d="M1458 784q0 -123 -39.5 -232t-108 -197t-161.5 -154.5t-199 -110.5q-215 -90 -454 -90h-322q76 79 76 285v1018h-220q16 4 68 50q99 86 126 86l444 1q332 0 547 -150q243 -169 243 -506zM1230 413q35 96 35 226.5t-26.5 229.5t-76.5 172.5t-122 123.5t-163 81
q-172 57 -433 57v-964q0 -102 -30 -155q-13 -21 -34 -51h333q417 0 517 280zM445 1754q171 137 190 137q7 0 101.5 -103.5t98.5 -108.5l83 79q11 10 27 18.5t39 22.5q93 59 123 88l-250 -238q-104 -87 -143.5 -110t-42.5 -23t-19 16t-39 41t-50.5 54.5t-52 56t-42.5 46
t-23 24.5z" />
    <glyph glyph-name="dcaron" unicode="&#x10f;" horiz-adv-x="1318" 
d="M554 970.5q77 21.5 130 21.5t93 -7v328q0 107 -39 142q-18 16 -44 16q-31 0 -91 -15q251 191 368 251v-1430q0 -81 17 -107q30 -50 104 -50q30 0 59 6q-29 -23 -57.5 -48t-59.5 -46q-71 -48 -125 -48t-77.5 10t-36.5 29q-20 29 -20 109q-205 -152 -329 -152
q-183 0 -280 122q-90 112 -90 300q0 154 96 294q89 133 235 214q70 39 147 60.5zM777 712q-45 72 -117 109t-150 37t-124 -26.5t-72 -70.5q-45 -76 -45 -190.5t20 -192t63 -136.5q94 -127 275 -127q39 0 77 23q73 42 73 79v495zM1156 1229q82 82 82 170q0 32 -17 46
q-15 13 -59 -15q-4 -2 -4 -1l-84 134q-3 7 64 51q90 59 92 57q21 -34 45 -68t38 -86.5t-8.5 -119t-72.5 -117.5q-9 -9 -30 -22q-37 -21 -46 -29z" />
    <glyph glyph-name="Dcroat" unicode="&#x110;" horiz-adv-x="1554" 
d="M1459 784q0 -123 -39.5 -232t-108 -197t-161.5 -154.5t-200 -110.5q-214 -90 -453 -90h-322q76 79 76 285v334h-220q12 1 65.5 47.5t82 67.5t46.5 21h26v548h-220q16 4 68 50q99 86 126 86l444 1q332 0 547 -150q243 -169 243 -506zM1232 413q34 96 34 226.5t-26.5 229.5
t-76.5 172.5t-122 123.5t-163 81q-172 57 -433 57v-548h302q-13 -1 -66 -48q-101 -88 -128 -88h-108v-280q0 -102 -31 -155q-12 -21 -33 -51h333q417 0 518 280z" />
    <glyph glyph-name="dcroat" unicode="&#x111;" horiz-adv-x="1174" 
d="M777 1331q0 140 -89 140q-25 0 -85 -15q251 191 368 251v-376h204q-13 -1 -66 -48q-101 -88 -128 -88h-10v-918q0 -81 17 -107q30 -50 104 -50q30 0 59 6q-29 -23 -57.5 -48t-59.5 -46q-71 -48 -125 -48t-77.5 10t-36.5 29q-20 29 -20 109q-205 -152 -329 -152
q-183 0 -280 122q-90 112 -90 300q0 154 96 294q89 133 235 214q147 82 301 82q29 0 69 -7v210h-209q12 1 65.5 47.5t82 67.5t46.5 21h15zM777 712q-45 72 -117 109t-150 37t-124 -26.5t-72 -70.5q-45 -76 -45 -190.5t20 -192t63 -136.5q94 -127 275 -127q39 0 77 23
q73 42 73 79v495z" />
    <glyph glyph-name="Emacron" unicode="&#x112;" horiz-adv-x="1132" 
d="M56 1303q166 136 194 136h826q-11 -1 -65 -47.5t-82.5 -67.5t-46.5 -21h-444v-485h485q-11 -1 -36 -22.5t-55 -46.5q-79 -67 -104 -67h-290v-326q0 -111 -34 -182q-13 -28 -34 -38h556q57 0 118 26l62 26q-51 -61 -218 -150q-72 -38 -97 -38h-638q90 122 90 239v443h-140
q87 70 140 109v512h-187zM1024 1668q-13 -2 -41.5 -27t-48.5 -42.5t-39 -32.5q-44 -35 -65 -35h-722q10 1 64.5 48t83 68t46.5 21h722z" />
    <glyph glyph-name="emacron" unicode="&#x113;" horiz-adv-x="874" 
d="M834 185q-137 -153 -340 -191q-47 -8 -116 -8t-130 38.5t-100 99.5q-74 118 -74 288q0 112 86 248q84 134 205 224q130 96 246 96q60 0 101 -44q38 -43 38 -98t-24 -101.5t-62.5 -90.5t-88 -84.5t-101.5 -75.5q-73 -50 -184 -113q32 -121 113 -186.5t209 -65.5
q108 0 222 64zM532 586q27 43 27 84t-9 69.5t-26 50.5q-39 50 -101 50q-152 0 -152 -310q0 -55 9 -109q176 49 252 165zM896 1202q-13 -2 -41.5 -27t-48.5 -42.5t-39 -32.5q-44 -35 -65 -35h-722q10 1 64.5 48t83 68t46.5 21h722z" />
    <glyph glyph-name="Ebreve" unicode="&#x114;" horiz-adv-x="1132" 
d="M56 1303q166 136 194 136h826q-11 -1 -65 -47.5t-82.5 -67.5t-46.5 -21h-444v-485h485q-11 -1 -36 -22.5t-55 -46.5q-79 -67 -104 -67h-290v-326q0 -111 -34 -182q-13 -28 -34 -38h556q57 0 118 26l62 26q-51 -61 -218 -150q-72 -38 -97 -38h-638q90 122 90 239v443h-140
q87 70 140 109v512h-187zM950 1903q-3 -129 -166 -256q-97 -76 -173.5 -100t-121.5 -24t-87 15t-78 41q-83 60 -138 179q-4 7 -4 12t14 17.5t35.5 26.5t46.5 28.5t46 27.5q51 29 52 33q66 -159 184 -223q43 -24 79.5 -24t55.5 14t31 32q22 32 27 55.5t32.5 42.5t61.5 38.5
t64.5 36.5t38.5 28z" />
    <glyph glyph-name="ebreve" unicode="&#x115;" horiz-adv-x="874" 
d="M834 185q-137 -153 -340 -191q-47 -8 -116 -8t-130 38.5t-100 99.5q-74 118 -74 288q0 112 86 248q84 134 205 224q130 96 246 96q60 0 101 -44q38 -43 38 -98t-24 -101.5t-62.5 -90.5t-88 -84.5t-101.5 -75.5q-73 -50 -184 -113q32 -121 113 -186.5t209 -65.5
q108 0 222 64zM532 586q27 43 27 84t-9 69.5t-26 50.5q-39 50 -101 50q-152 0 -152 -310q0 -55 9 -109q176 49 252 165zM821 1405q-3 -129 -166 -256q-97 -76 -173.5 -100t-121.5 -24t-87 15t-78 41q-83 60 -138 179q-4 7 -4 12t14 17.5t35.5 26.5t46.5 28.5t46 27.5
q51 29 52 33q66 -159 184 -223q43 -24 79.5 -24t55.5 14t31 32q22 32 27 55.5t32.5 42.5t61.5 38.5t64.5 36.5t38.5 28z" />
    <glyph glyph-name="Edotaccent" unicode="&#x116;" horiz-adv-x="1132" 
d="M56 1303q166 136 194 136h826q-11 -1 -65 -47.5t-82.5 -67.5t-46.5 -21h-444v-485h485q-11 -1 -36 -22.5t-55 -46.5q-79 -67 -104 -67h-290v-326q0 -111 -34 -182q-13 -28 -34 -38h556q57 0 118 26l62 26q-51 -61 -218 -150q-72 -38 -97 -38h-638q90 122 90 239v443h-140
q87 70 140 109v512h-187zM739 1649l-194 -137l-152 142l194 136z" />
    <glyph glyph-name="edotaccent" unicode="&#x117;" horiz-adv-x="874" 
d="M834 185q-137 -153 -340 -191q-47 -8 -116 -8t-130 38.5t-100 99.5q-74 118 -74 288q0 112 86 248q84 134 205 224q130 96 246 96q60 0 101 -44q38 -43 38 -98t-24 -101.5t-62.5 -90.5t-88 -84.5t-101.5 -75.5q-73 -50 -184 -113q32 -121 113 -186.5t209 -65.5
q108 0 222 64zM532 586q27 43 27 84t-9 69.5t-26 50.5q-39 50 -101 50q-152 0 -152 -310q0 -55 9 -109q176 49 252 165zM610 1168l-194 -137l-152 142l194 136z" />
    <glyph glyph-name="Eogonek" unicode="&#x118;" horiz-adv-x="1132" 
d="M56 1303q166 136 194 136h826q-11 -1 -65 -47.5t-82.5 -67.5t-46.5 -21h-444v-485h485q-11 -1 -36 -22.5t-55 -46.5q-79 -67 -104 -67h-290v-326q0 -111 -34 -182q-13 -28 -34 -38h556q57 0 118 26l62 26q-45 -55 -195 -138q-70 -38 -102 -47q-63 -79 -63 -158
q0 -70 54 -125q52 -54 124 -54q50 0 140 57q22 14 43 24v-1q0 -20 -195 -144q-113 -73 -186 -73q-67 0 -119 56q-50 54 -50 111t15.5 99t41.5 79q52 72 136 126h-597q90 122 90 239v443h-140q87 70 140 109v512h-187z" />
    <glyph glyph-name="eogonek" unicode="&#x119;" horiz-adv-x="874" 
d="M462 -10q-32 -4 -66 -4q-160 0 -248 138q-74 118 -74 288q0 112 86 248q84 134 205 224q130 96 246 96q60 0 101 -44q38 -43 38 -98t-24 -101.5t-62.5 -90.5t-88 -84.5t-101.5 -75.5q-73 -50 -184 -113q32 -121 113 -186.5t209 -65.5q108 0 222 64q-61 -70 -143.5 -116.5
t-153.5 -64.5q-64 -83 -64 -159q0 -70 53 -125q53 -54 125 -54q50 0 140 57q22 14 43 24v-1q0 -20 -194 -144q-114 -73 -187 -73q-67 0 -119 56q-50 54 -50 110t14 96t38 76q47 68 126 123zM532 586q27 43 27 84t-9 69.5t-26 50.5q-39 50 -101 50q-152 0 -152 -310
q0 -55 9 -109q176 49 252 165z" />
    <glyph glyph-name="Ecaron" unicode="&#x11a;" horiz-adv-x="1132" 
d="M56 1303q166 136 194 136h826q-11 -1 -65 -47.5t-82.5 -67.5t-46.5 -21h-444v-485h485q-11 -1 -36 -22.5t-55 -46.5q-79 -67 -104 -67h-290v-326q0 -111 -34 -182q-13 -28 -34 -38h556q57 0 118 26l62 26q-51 -61 -218 -150q-72 -38 -97 -38h-638q90 122 90 239v443h-140
q87 70 140 109v512h-187zM235 1754q171 137 190 137q7 0 101.5 -103.5t98.5 -108.5l83 79q11 10 27 18.5t39 22.5q93 59 123 88l-250 -238q-104 -87 -143.5 -110t-42.5 -23t-19 16t-39 41t-50.5 54.5t-52 56t-42.5 46t-23 24.5z" />
    <glyph glyph-name="ecaron" unicode="&#x11b;" horiz-adv-x="874" 
d="M834 185q-137 -153 -340 -191q-47 -8 -116 -8t-130 38.5t-100 99.5q-74 118 -74 288q0 112 86 248q84 134 205 224q130 96 246 96q60 0 101 -44q38 -43 38 -98t-24 -101.5t-62.5 -90.5t-88 -84.5t-101.5 -75.5q-73 -50 -184 -113q32 -121 113 -186.5t209 -65.5
q108 0 222 64zM532 586q27 43 27 84t-9 69.5t-26 50.5q-39 50 -101 50q-152 0 -152 -310q0 -55 9 -109q176 49 252 165zM106 1226q171 137 190 137q7 0 101.5 -103.5t98.5 -108.5l83 79q11 10 27 18.5t39 22.5q93 59 123 88l-250 -238q-104 -87 -143.5 -110t-42.5 -23
t-19 16t-39 41t-50.5 54.5t-52 56t-42.5 46t-23 24.5z" />
    <glyph glyph-name="Gcircumflex" unicode="&#x11c;" horiz-adv-x="1637" 
d="M1599 759q-9 -3 -52 -36t-72 -59v-347q-116 -148 -326 -251q-212 -104 -382 -104t-292.5 50.5t-208.5 139.5q-175 184 -175 485q0 222 82 361q119 212 367 356q247 143 493 143q169 0 341 -52q68 -20 113 -49q10 -7 10 -15t-16 -22.5t-40.5 -33t-53.5 -38.5t-55 -37
q-53 -36 -70 -43q1 3 7 8t13 11q17 16 17 26q0 39 -137 73q-146 37 -311 37t-268 -40t-169 -116q-127 -148 -127 -440q0 -283 168 -470q175 -196 454 -196q168 0 297 44q48 17 77 43v435h-287l38 32q129 105 156 105h409zM1149 1700q-171 -137 -190 -137q-7 0 -101.5 103.5
t-98.5 108.5l-83 -79q-11 -10 -27 -18.5t-39 -23.5q-93 -58 -123 -86l250 237q34 34 94 75q85 58 90 58t21 -16t39 -41t50.5 -54.5t52 -55.5t42.5 -46t23 -25z" />
    <glyph glyph-name="gcircumflex" unicode="&#x11d;" horiz-adv-x="971" 
d="M944 972q54 0 88 21q-2 -34 -78 -84q-63 -42 -108 -53q38 -73 38 -159t-33.5 -153t-84 -118t-109.5 -89t-109.5 -69t-84 -58t-33.5 -53.5t11.5 -45.5t29.5 -33q33 -27 69.5 -41t82 -30t97.5 -37.5t106 -47t97 -56.5q98 -69 98 -139t-103 -151q-155 -123 -402 -169
q-79 -15 -131.5 -15t-90.5 3.5t-78.5 11t-79.5 19.5t-70 30q-69 40 -69 91t19 89t50 70t70 58t79 48.5t77 42t64 37.5q-118 49 -118 116t146 165q35 23 56 39q-43 -13 -96.5 -13t-103.5 27.5t-85 71.5q-71 91 -71 217t94 239q83 99 221 164q131 61 254 61zM279 675
q0 -89 16 -146.5t50 -100.5q74 -95 208 -95q76 0 111 75q26 55 26 129q0 142 -62 223.5t-179 81.5t-143.5 -39t-26.5 -128zM810.5 -406q10.5 20 10.5 52.5t-37 65t-96.5 60t-287.5 104.5q-92 -39 -128 -69q-74 -62 -74 -140q0 -59 275 -117q97 -21 145 -21t90 8t67 22.5
t35.5 34.5zM816 1187q-171 -137 -190 -137q-7 0 -101.5 103.5t-98.5 108.5l-83 -79q-11 -10 -27 -18.5t-39 -23.5q-93 -58 -123 -86l250 237q34 34 94 75q85 58 90 58t21 -16t39 -41t50.5 -54.5t52 -55.5t42.5 -46t23 -25z" />
    <glyph glyph-name="Gbreve" unicode="&#x11e;" horiz-adv-x="1637" 
d="M1599 759q-9 -3 -52 -36t-72 -59v-347q-116 -148 -326 -251q-212 -104 -382 -104t-292.5 50.5t-208.5 139.5q-175 184 -175 485q0 222 82 361q119 212 367 356q247 143 493 143q169 0 341 -52q68 -20 113 -49q10 -7 10 -15t-16 -22.5t-40.5 -33t-53.5 -38.5t-55 -37
q-53 -36 -70 -43q1 3 7 8t13 11q17 16 17 26q0 39 -137 73q-146 37 -311 37t-268 -40t-169 -116q-127 -148 -127 -440q0 -283 168 -470q175 -196 454 -196q168 0 297 44q48 17 77 43v435h-287l38 32q129 105 156 105h409zM1202 1920q-3 -129 -166 -256q-97 -76 -173.5 -100
t-121.5 -24t-87 15t-78 41q-83 60 -138 179q-4 7 -4 12t14 17.5t35.5 26.5t46.5 28.5t46 27.5q51 29 52 33q66 -159 184 -223q43 -24 79.5 -24t55.5 14t31 32q22 32 27 55.5t32.5 42.5t61.5 38.5t64.5 36.5t38.5 28z" />
    <glyph glyph-name="gbreve" unicode="&#x11f;" horiz-adv-x="971" 
d="M944 972q54 0 88 21q-2 -34 -78 -84q-63 -42 -108 -53q38 -73 38 -159t-33.5 -153t-84 -118t-109.5 -89t-109.5 -69t-84 -58t-33.5 -53.5t11.5 -45.5t29.5 -33q33 -27 69.5 -41t82 -30t97.5 -37.5t106 -47t97 -56.5q98 -69 98 -139t-103 -151q-155 -123 -402 -169
q-79 -15 -131.5 -15t-90.5 3.5t-78.5 11t-79.5 19.5t-70 30q-69 40 -69 91t19 89t50 70t70 58t79 48.5t77 42t64 37.5q-118 49 -118 116t146 165q35 23 56 39q-43 -13 -96.5 -13t-103.5 27.5t-85 71.5q-71 91 -71 217t94 239q83 99 221 164q131 61 254 61zM279 675
q0 -89 16 -146.5t50 -100.5q74 -95 208 -95q76 0 111 75q26 55 26 129q0 142 -62 223.5t-179 81.5t-143.5 -39t-26.5 -128zM810.5 -406q10.5 20 10.5 52.5t-37 65t-96.5 60t-287.5 104.5q-92 -39 -128 -69q-74 -62 -74 -140q0 -59 275 -117q97 -21 145 -21t90 8t67 22.5
t35.5 34.5zM869 1408q-3 -129 -166 -256q-97 -76 -173.5 -100t-121.5 -24t-87 15t-78 41q-83 60 -138 179q-4 7 -4 12t14 17.5t35.5 26.5t46.5 28.5t46 27.5q51 29 52 33q66 -159 184 -223q43 -24 79.5 -24t55.5 14t31 32q22 32 27 55.5t32.5 42.5t61.5 38.5t64.5 36.5
t38.5 28z" />
    <glyph glyph-name="Gdotaccent" unicode="&#x120;" horiz-adv-x="1637" 
d="M1599 759q-9 -3 -52 -36t-72 -59v-347q-116 -148 -326 -251q-212 -104 -382 -104t-292.5 50.5t-208.5 139.5q-175 184 -175 485q0 222 82 361q119 212 367 356q247 143 493 143q169 0 341 -52q68 -20 113 -49q10 -7 10 -15t-16 -22.5t-40.5 -33t-53.5 -38.5t-55 -37
q-53 -36 -70 -43q1 3 7 8t13 11q17 16 17 26q0 39 -137 73q-146 37 -311 37t-268 -40t-169 -116q-127 -148 -127 -440q0 -283 168 -470q175 -196 454 -196q168 0 297 44q48 17 77 43v435h-287l38 32q129 105 156 105h409zM991 1678l-194 -137l-152 142l194 136z" />
    <glyph glyph-name="gdotaccent" unicode="&#x121;" horiz-adv-x="971" 
d="M944 972q54 0 88 21q-2 -34 -78 -84q-63 -42 -108 -53q38 -73 38 -159t-33.5 -153t-84 -118t-109.5 -89t-109.5 -69t-84 -58t-33.5 -53.5t11.5 -45.5t29.5 -33q33 -27 69.5 -41t82 -30t97.5 -37.5t106 -47t97 -56.5q98 -69 98 -139t-103 -151q-155 -123 -402 -169
q-79 -15 -131.5 -15t-90.5 3.5t-78.5 11t-79.5 19.5t-70 30q-69 40 -69 91t19 89t50 70t70 58t79 48.5t77 42t64 37.5q-118 49 -118 116t146 165q35 23 56 39q-43 -13 -96.5 -13t-103.5 27.5t-85 71.5q-71 91 -71 217t94 239q83 99 221 164q131 61 254 61zM279 675
q0 -89 16 -146.5t50 -100.5q74 -95 208 -95q76 0 111 75q26 55 26 129q0 142 -62 223.5t-179 81.5t-143.5 -39t-26.5 -128zM810.5 -406q10.5 20 10.5 52.5t-37 65t-96.5 60t-287.5 104.5q-92 -39 -128 -69q-74 -62 -74 -140q0 -59 275 -117q97 -21 145 -21t90 8t67 22.5
t35.5 34.5zM658 1175l-194 -137l-152 142l194 136z" />
    <glyph glyph-name="Gcommaaccent" unicode="&#x122;" horiz-adv-x="1637" 
d="M1599 759q-9 -3 -52 -36t-72 -59v-347q-116 -148 -326 -251q-212 -104 -382 -104t-292.5 50.5t-208.5 139.5q-175 184 -175 485q0 222 82 361q119 212 367 356q247 143 493 143q169 0 341 -52q68 -20 113 -49q10 -7 10 -15t-16 -22.5t-40.5 -33t-53.5 -38.5t-55 -37
q-53 -36 -70 -43q1 3 7 8t13 11q17 16 17 26q0 39 -137 73q-146 37 -311 37t-268 -40t-169 -116q-127 -148 -127 -440q0 -283 168 -470q175 -196 454 -196q168 0 297 44q48 17 77 43v435h-287l38 32q129 105 156 105h409zM774 -547q82 82 82 169q0 33 -16 47q-16 13 -60 -15
q-4 -2 -4 -1l-84 133q-2 2 9 11t28 21.5t38 26t39 25.5q41 26 42 25q21 -34 44.5 -68t37.5 -86.5t-8 -119.5t-72 -117q-9 -9 -30 -22q-37 -21 -46 -29z" />
    <glyph glyph-name="gcommaaccent" unicode="&#x123;" horiz-adv-x="971" 
d="M944 972q54 0 88 21q-2 -34 -78 -84q-63 -42 -108 -53q38 -73 38 -159t-33.5 -153t-84 -118t-109.5 -89t-109.5 -69t-84 -58t-33.5 -53.5t11.5 -45.5t29.5 -33q33 -27 69.5 -41t82 -30t97.5 -37.5t106 -47t97 -56.5q98 -69 98 -139t-103 -151q-155 -123 -402 -169
q-79 -15 -131.5 -15t-90.5 3.5t-78.5 11t-79.5 19.5t-70 30q-69 40 -69 91t19 89t50 70t70 58t79 48.5t77 42t64 37.5q-118 49 -118 116t146 165q35 23 56 39q-43 -13 -96.5 -13t-103.5 27.5t-85 71.5q-71 91 -71 217t94 239q83 99 221 164q131 61 254 61zM279 675
q0 -89 16 -146.5t50 -100.5q74 -95 208 -95q76 0 111 75q26 55 26 129q0 142 -62 223.5t-179 81.5t-143.5 -39t-26.5 -128zM810.5 -406q10.5 20 10.5 52.5t-37 65t-96.5 60t-287.5 104.5q-92 -39 -128 -69q-74 -62 -74 -140q0 -59 275 -117q97 -21 145 -21t90 8t67 22.5
t35.5 34.5zM530 1476q-81 -81 -81 -170q0 -32 16 -47q18 -15 60 14q3 3 4 3l84 -133q4 -7 -46 -40t-68 -44q-42 -28 -42 -25q-21 34 -45 67.5t-38 87t9 119.5q33 98 112 145q28 16 35 23z" />
    <glyph glyph-name="Hcircumflex" unicode="&#x124;" horiz-adv-x="1665" 
d="M1629 136q-12 -1 -65 -48q-103 -88 -130 -88h-338q53 59 67 94q22 56 22 145v443h-744v-294q0 -95 -9 -129q-14 -52 -63 -123h321q-14 -2 -62 -44t-68 -57q-45 -35 -65 -35h-339q74 58 86 159q4 35 4 80v1064h-187l39 31q127 105 155 105h437q-12 0 -61 -43t-69 -58
q-45 -35 -65 -35h-54v-485h744v485h-187l38 31q128 105 157 105h436q-12 0 -61 -43t-68 -58q-46 -35 -66 -35h-54v-915q0 -95 -9 -129q-14 -54 -62 -123h320zM1163 1649q-171 -137 -190 -137q-7 0 -101.5 103.5t-98.5 108.5l-83 -79q-11 -10 -27 -18.5t-39 -23.5
q-93 -58 -123 -86l250 237q34 34 94 75q85 58 90 58t21 -16t39 -41t50.5 -54.5t52 -55.5t42.5 -46t23 -25z" />
    <glyph glyph-name="hcircumflex" unicode="&#x125;" horiz-adv-x="1112" 
d="M348 218q0 -100 58 -100q20 0 61 17q-39 -87 -117 -131q-40 -23 -85 -20.5t-64.5 24.5t-30.5 53q-16 49 -16 126v1142q0 106 -37 141q-17 16 -43 16q-43 0 -94 -14q122 96 368 251v-917q125 110 256 150q48 15 93 15t85.5 -14.5t72.5 -40.5q71 -59 71 -147v-509
q0 -132 64 -146q18 -4 38 -4q31 0 87 25q-83 -106 -193 -139q-38 -12 -81.5 -12t-67.5 21t-33 53t-9 70v448q0 153 -47 206q-43 50 -159 50q-155 0 -173 -212q-4 -54 -4 -100v-302zM867.986 1170.68q-140.774 -112.525 -156.416 -112.525q-5.7627 0 -83.5586 85.0098
q-77.7969 85.0098 -81.0898 89.1172l-68.3291 -64.8867q-9.05566 -8.21387 -22.2275 -15.1953t-32.1064 -19.3018q-76.5615 -47.6387 -101.259 -70.6357l205.811 194.659q27.9902 27.9268 77.3848 61.6016q69.9756 47.6387 74.0918 47.6387t17.2881 -13.1416
t32.1064 -33.6758q18.9346 -20.5332 41.5742 -44.7637q22.6387 -24.2295 42.8086 -45.585q20.1689 -21.3545 34.9873 -37.7822q14.8184 -16.4268 18.9346 -20.5332z" />
    <glyph glyph-name="Hbar" unicode="&#x126;" horiz-adv-x="1665" 
d="M1629 136q-12 -1 -65 -48q-103 -88 -130 -88h-338q53 59 67 94q22 56 22 145v443h-744v-294q0 -95 -9 -129q-14 -52 -63 -123h321q-14 -2 -62 -44t-68 -57q-45 -35 -65 -35h-339q74 58 86 159q4 35 4 80v696h-209q12 1 65.5 47.5t82 67.5t46.5 21h15v232h-187l39 31
q127 105 155 105h437q-12 0 -61 -43t-69 -58q-45 -35 -65 -35h-54v-232h744v232h-187l38 31q128 105 157 105h436q-12 0 -61 -43t-68 -58q-46 -35 -66 -35h-54v-232h212q-12 -1 -65.5 -47.5t-82 -67.5t-46.5 -21h-18v-547q0 -95 -9 -129q-14 -54 -62 -123h320zM1185 818v117
h-744v-117h744z" />
    <glyph glyph-name="hbar" unicode="&#x127;" horiz-adv-x="1112" 
d="M348 218q0 -100 58 -100q20 0 61 17q-39 -87 -117 -131q-40 -23 -85 -20.5t-64.5 24.5t-30.5 53q-16 49 -16 126v864h-156q11 0 49 33q84 73 107 87v158q0 106 -37 141q-17 16 -43 16q-43 0 -94 -14q122 96 368 251v-536h150q-12 -2 -48 -33q-74 -65 -102 -84v-264
q125 110 256 150q48 15 93 15t85.5 -14.5t72.5 -40.5q71 -59 71 -147v-509q0 -132 64 -146q18 -4 38 -4q31 0 87 25q-83 -106 -193 -139q-38 -12 -81.5 -12t-67.5 21t-33 53t-9 70v448q0 153 -47 206q-43 50 -159 50q-155 0 -173 -212q-4 -54 -4 -100v-302z" />
    <glyph glyph-name="Itilde" unicode="&#x128;" horiz-adv-x="733" 
d="M59 1303q166 136 194 136h456q-13 -2 -61 -44t-68 -57q-45 -35 -65 -35h-74v-915q0 -173 -72 -252h321q-14 -2 -62 -44t-68 -57q-45 -35 -65 -35h-339q53 53 67 90q23 59 23 149v1064h-187zM830 1771q-208 -239 -406 -239q-61 0 -96.5 23t-53.5 38.5t-39 29.5
q-46 32 -105 32q-60 0 -225 -129q140 203 328 254q43 11 87 11t75.5 -19.5t63.5 -42.5q86 -62 166 -62q57 0 156 73q25 18 49 31z" />
    <glyph glyph-name="itilde" unicode="&#x129;" horiz-adv-x="578" 
d="M581 123q-30 -24 -58.5 -49t-59.5 -46q-72 -47 -138 -47q-62 0 -87 19q-51 38 -51 140v474q0 108 -39 140q-18 15 -39 15t-35.5 -2.5t-29.5 -5.5t-31 -6q50 39 93.5 70t74.5 52t86 59.5t114 69.5v-706q0 -102 13 -129q28 -55 124 -55q26 0 63 7zM753 1335
q-208 -239 -406 -239q-61 0 -96.5 23t-53.5 38.5t-39 29.5q-46 32 -105 32q-60 0 -225 -129q140 203 328 254q43 11 87 11t75.5 -19.5t63.5 -42.5q86 -62 166 -62q57 0 156 73q25 18 49 31z" />
    <glyph glyph-name="Imacron" unicode="&#x12a;" horiz-adv-x="733" 
d="M59 1303q166 136 194 136h456q-13 -2 -61 -44t-68 -57q-45 -35 -65 -35h-74v-915q0 -173 -72 -252h321q-14 -2 -62 -44t-68 -57q-45 -35 -65 -35h-339q53 53 67 90q23 59 23 149v1064h-187zM826 1680q-13 -2 -41.5 -27t-48.5 -42.5t-39 -32.5q-44 -35 -65 -35h-722
q10 1 64.5 48t83 68t46.5 21h722z" />
    <glyph glyph-name="imacron" unicode="&#x12b;" horiz-adv-x="578" 
d="M581 123q-30 -24 -58.5 -49t-59.5 -46q-72 -47 -138 -47q-62 0 -87 19q-51 38 -51 140v474q0 108 -39 140q-18 15 -39 15t-35.5 -2.5t-29.5 -5.5t-31 -6q50 39 93.5 70t74.5 52t86 59.5t114 69.5v-706q0 -102 13 -129q28 -55 124 -55q26 0 63 7zM748 1245
q-13 -2 -41.5 -27t-48.5 -42.5t-39 -32.5q-44 -35 -65 -35h-722q10 1 64.5 48t83 68t46.5 21h722z" />
    <glyph glyph-name="Ibreve" unicode="&#x12c;" horiz-adv-x="733" 
d="M59 1303q166 136 194 136h456q-13 -2 -61 -44t-68 -57q-45 -35 -65 -35h-74v-915q0 -173 -72 -252h321q-14 -2 -62 -44t-68 -57q-45 -35 -65 -35h-339q53 53 67 90q23 59 23 149v1064h-187zM752 1907q-3 -129 -166 -256q-97 -76 -173.5 -100t-121.5 -24t-87 15t-78 41
q-83 60 -138 179q-4 7 -4 12t14 17.5t35.5 26.5t46.5 28.5t46 27.5q51 29 52 33q66 -159 184 -223q43 -24 79.5 -24t55.5 14t31 32q22 32 27 55.5t32.5 42.5t61.5 38.5t64.5 36.5t38.5 28z" />
    <glyph glyph-name="ibreve" unicode="&#x12d;" horiz-adv-x="578" 
d="M581 123q-30 -24 -58.5 -49t-59.5 -46q-72 -47 -138 -47q-62 0 -87 19q-51 38 -51 140v474q0 108 -39 140q-18 15 -39 15t-35.5 -2.5t-29.5 -5.5t-31 -6q50 39 93.5 70t74.5 52t86 59.5t114 69.5v-706q0 -102 13 -129q28 -55 124 -55q26 0 63 7zM674 1459
q-3 -129 -166 -256q-97 -76 -173.5 -100t-121.5 -24t-87 15t-78 41q-83 60 -138 179q-4 7 -4 12t14 17.5t35.5 26.5t46.5 28.5t46 27.5q51 29 52 33q66 -159 184 -223q43 -24 79.5 -24t55.5 14t31 32q22 32 27 55.5t32.5 42.5t61.5 38.5t64.5 36.5t38.5 28z" />
    <glyph glyph-name="Iogonek" unicode="&#x12e;" horiz-adv-x="733" 
d="M409 0q-61 -80 -61 -155q0 -70 54 -125q52 -54 124 -54q50 0 140 57q22 14 43 24v-1q0 -20 -195 -144q-113 -73 -186 -73q-67 0 -119 56q-50 54 -50 111t15.5 99t41.5 79q52 72 136 126h-196q53 53 67 90q23 59 23 149v1064h-187q166 136 194 136h456q-13 -2 -61 -44
t-68 -57q-45 -35 -65 -35h-74v-915q0 -173 -72 -252h321q-14 -2 -62 -44t-68 -57q-45 -35 -65 -35h-86z" />
    <glyph glyph-name="iogonek" unicode="&#x12f;" horiz-adv-x="578" 
d="M692 -254q0 -20 -194 -144q-114 -73 -187 -73q-67 0 -119 56q-50 54 -50 109t13 93.5t35 72.5q45 69 118 121q-55 3 -77 23q-44 42 -44 136v474q0 108 -39 140q-18 15 -39 15t-35.5 -2.5t-29.5 -5.5t-31 -6q50 39 93.5 70t74.5 52t86 59.5t114 69.5v-706q0 -102 13 -129
q28 -55 124 -55q26 0 63 7q-24 -19 -47 -39.5t-47 -38.5q-55 -41 -103 -55q-53 -74 -53 -145q0 -70 53 -125q53 -54 125 -54q50 0 140 57q22 14 43 24v-1zM372 1697l6 -114v-52q0 -48 -12 -58.5t-26 -20.5q-56 -40 -162 -108q5 100 5 103.5t-5 113.5z" />
    <glyph glyph-name="Idotaccent" unicode="&#x130;" horiz-adv-x="733" 
d="M59 1303q166 136 194 136h456q-13 -2 -61 -44t-68 -57q-45 -35 -65 -35h-74v-915q0 -173 -72 -252h321q-14 -2 -62 -44t-68 -57q-45 -35 -65 -35h-339q53 53 67 90q23 59 23 149v1064h-187zM539 1670l-194 -137l-152 142l194 136z" />
    <glyph glyph-name="dotlessi" unicode="&#x131;" horiz-adv-x="578" 
d="M581 123q-30 -24 -58.5 -49t-59.5 -46q-72 -47 -138 -47q-62 0 -87 19q-51 38 -51 140v474q0 108 -39 140q-18 15 -39 15t-35.5 -2.5t-29.5 -5.5t-31 -6q50 39 93.5 70t74.5 52t86 59.5t114 69.5v-706q0 -102 13 -129q28 -55 124 -55q26 0 63 7z" />
    <glyph glyph-name="IJ" unicode="&#x132;" horiz-adv-x="1443" 
d="M59 1303q166 136 194 136h456q-13 -2 -61 -44t-68 -57q-45 -35 -65 -35h-74v-915q0 -173 -72 -252h321q-14 -2 -62 -44t-68 -57q-45 -35 -65 -35h-339q53 53 67 90q23 59 23 149v1064h-187zM1440 1439q-18 -5 -70 -50.5t-79 -65.5t-45 -20h-75v-1080q0 -175 -84 -350
q-86 -181 -226 -293q-155 -123 -332 -123q-51 0 -116 24.5t-90 38.5q-56 31 -56 59q0 29 162 141q51 37 80 51q-52 -35 -52 -60q0 -12 48.5 -41t83.5 -44q81 -34 140.5 -34t100.5 25t68.5 66t43 93t23.5 107q12 83 12 203v1217h-187q12 9 39.5 31.5t57.5 45.5q76 59 97 59
h456z" />
    <glyph glyph-name="ij" unicode="&#x133;" horiz-adv-x="1120" 
d="M372 1697l6 -114v-52q0 -48 -12 -58.5t-26 -20.5q-56 -40 -162 -108q5 100 5 103.5t-5 113.5zM581 123q-30 -24 -58.5 -49t-59.5 -46q-72 -47 -138 -47q-62 0 -87 19q-51 38 -51 140v474q0 108 -39 140q-18 15 -39 15t-35.5 -2.5t-29.5 -5.5t-31 -6q50 39 93.5 70
t74.5 52t86 59.5t114 69.5v-706q0 -102 13 -129q28 -55 124 -55q26 0 63 7zM952 1697q4 -64 4 -107v-66q0 -45 -15.5 -57.5t-35 -26.5t-42.5 -29.5t-44.5 -29t-38 -24t-22.5 -13.5q3 33 3 92.5t-3 124.5zM638 -375q-23 -18 -23 -43.5t19 -37.5t40 -11h2q80 134 88 364
q3 64 3 125v582q0 112 -36 148q-17 17 -44 17q-35 0 -94 -14q122 96 368 251v-810q0 -218 -19.5 -301.5t-48.5 -151.5t-70 -130.5t-93 -110.5q-112 -105 -244 -105q-64 0 -64 48q0 31 32.5 57t57 42t48.5 30q62 36 78 51z" />
    <glyph glyph-name="Jcircumflex" unicode="&#x134;" horiz-adv-x="710" 
d="M707 1439q-18 -5 -70 -50.5t-79 -65.5t-45 -20h-75v-1080q0 -175 -84 -350q-86 -181 -226 -293q-155 -123 -332 -123q-51 0 -116 24.5t-90 38.5q-56 31 -56 59q0 29 162 141q51 37 80 51q-52 -35 -52 -60q0 -12 48.5 -41t83.5 -44q81 -34 140.5 -34t100.5 25t68.5 66
t43 93t23.5 107q12 83 12 203v1217h-187q12 9 39.5 31.5t57.5 45.5q76 59 97 59h456zM686 1652q-171 -137 -190 -137q-7 0 -101.5 103.5t-98.5 108.5l-83 -79q-11 -10 -27 -18.5t-39 -23.5q-93 -58 -123 -86l250 237q34 34 94 75q85 58 90 58t21 -16t39 -41t50.5 -54.5
t52 -55.5t42.5 -46t23 -25z" />
    <glyph glyph-name="jcircumflex" unicode="&#x135;" horiz-adv-x="542" 
d="M60 -375q-23 -18 -23 -43.5t19 -37.5t40 -11h2q80 134 88 364q3 64 3 125v582q0 112 -36 148q-17 17 -44 17q-35 0 -94 -14q122 96 368 251v-810q0 -218 -19.5 -301.5t-48.5 -151.5t-70 -130.5t-93 -110.5q-112 -105 -244 -105q-64 0 -64 48q0 31 32.5 57t57 42t48.5 30
q62 36 78 51zM603 1210q-171 -137 -190 -137q-7 0 -101.5 103.5t-98.5 108.5l-83 -79q-11 -10 -27 -18.5t-39 -23.5q-93 -58 -123 -86l250 237q34 34 94 75q85 58 90 58t21 -16t39 -41t50.5 -54.5t52 -55.5t42.5 -46t23 -25z" />
    <glyph glyph-name="Kcommaaccent" unicode="&#x136;" horiz-adv-x="1630" 
d="M1117 1303q-125 -134 -447 -434q589 -580 712 -667q95 -68 184 -68q46 0 151 47q-56 -53 -100 -82t-74 -45.5t-62 -29.5q-123 -50 -209 -13q-65 27 -118 74.5t-87 77.5t-81 72.5t-98 88.5q-95 89 -202.5 191t-223.5 212q483 463 582 576h-175q69 62 125.5 99t68.5 37h397
q-19 -4 -65.5 -46t-64.5 -57q-43 -33 -65 -33h-148zM158 0q90 93 90 348v955h-187l39 31q127 105 155 105h456q-11 -1 -65 -47.5t-82.5 -67.5t-46.5 -21h-74v-915q0 -95 -9 -129q-14 -52 -63 -123h321q-14 -2 -62 -44t-68 -57q-45 -35 -65 -35h-339zM771 -547q82 82 82 169
q0 33 -16 47q-16 13 -60 -15q-4 -2 -4 -1l-84 133q-2 2 9 11t28 21.5t38 26t39 25.5q41 26 42 25q21 -34 44.5 -68t37.5 -86.5t-8 -119.5t-72 -117q-9 -9 -30 -22q-37 -21 -46 -29z" />
    <glyph glyph-name="kcommaaccent" unicode="&#x137;" horiz-adv-x="1067" 
d="M155 1337q0 150 -88 150q-26 0 -86 -15q41 31 86.5 65.5t92.5 68.5q102 71 190 117l-1 -918q112 100 249 147q46 16 81 16t62.5 -12t47.5 -32q43 -45 43 -101t-28 -101.5t-69 -85.5q-58 -58 -171 -131q14 -15 44.5 -49t69 -76t82 -87t82.5 -82q90 -85 118 -85
q70 0 138 39q-86 -118 -211 -166q-42 -16 -73.5 -16t-50 7t-35.5 18q-33 22 -89 78q-117 118 -290 305v-103q0 -23 -0.5 -52.5t5.5 -56.5q14 -64 70 -64q21 0 44 10q-21 -18 -48.5 -43t-58.5 -48q-74 -55 -122 -55q-84 0 -84 144v1214zM490 832q-141 0 -141 -361v-52
q183 73 259 182q30 43 30 83.5t-12 66t-32 43.5q-44 38 -104 38zM489 -547q82 82 82 169q0 33 -16 47q-16 13 -60 -15q-4 -2 -4 -1l-84 133q-2 2 9 11t28 21.5t38 26t39 25.5q41 26 42 25q21 -34 44.5 -68t37.5 -86.5t-8 -119.5t-72 -117q-9 -9 -30 -22q-37 -21 -46 -29z
" />
    <glyph glyph-name="kgreenlandic" unicode="&#x138;" horiz-adv-x="1067" 
d="M155 626q0 150 -88 150q-26 0 -86 -15q41 31 86.5 65.5t92.5 67.5q102 72 190 118l-1 -207q112 100 249 147q46 16 81 16t62.5 -12t47.5 -32q43 -45 43 -101t-28 -101.5t-69 -85.5q-58 -58 -171 -131q14 -15 44.5 -49t69 -76t82 -87t82.5 -82q90 -85 118 -85q70 0 138 39
q-86 -118 -211 -166q-42 -16 -73.5 -16t-50 7t-35.5 18q-33 22 -89 78q-117 118 -290 305v-103q0 -23 -0.5 -52.5t5.5 -56.5q14 -64 70 -64q21 0 44 10q-21 -18 -48.5 -43t-58.5 -48q-74 -55 -122 -55q-84 0 -84 144v503zM490 832q-141 0 -141 -361v-52q183 73 259 182
q30 43 30 83.5t-12 66t-32 43.5q-44 38 -104 38z" />
    <glyph glyph-name="Lacute" unicode="&#x139;" horiz-adv-x="1121" 
d="M444 307q0 -111 -79 -171h564q81 0 122.5 19t61.5 35q-119 -147 -255 -182q-30 -8 -61 -8h-648q56 54 72 90q28 64 28 149v1064h-187l38 31q128 105 156 105h456q-11 0 -60 -43t-68 -58q-46 -35 -66 -35h-74v-996zM320 1506v12q79 52 137 119q70 81 155 196q1 2 57 43
t62 45.5t19 11.5t25 14t26 15q-27 -35 -56.5 -75.5t-77.5 -93.5q-105 -116 -201.5 -188t-145.5 -99z" />
    <glyph glyph-name="lacute" unicode="&#x13a;" horiz-adv-x="552" 
d="M556 124q-33 -26 -63 -52t-62 -46q-71 -46 -147 -46q-110 0 -120 152q-2 41 -2 80v1070q0 137 -62 178q-26 18 -50 18q-32 0 -43 -1.5t-19 -2.5q144 100 182 120q50 27 103.5 53.5t82.5 41.5v-1380q0 -41 0.5 -76t11.5 -61q25 -54 126 -54q32 0 62 6zM36 1604v12
q79 52 137 119q70 81 155 196q1 2 57 43t62 45.5t19 11.5t25 14t26 15q-27 -35 -56.5 -75.5t-77.5 -93.5q-105 -116 -201.5 -188t-145.5 -99z" />
    <glyph glyph-name="Lcommaaccent" unicode="&#x13b;" horiz-adv-x="1121" 
d="M444 307q0 -111 -79 -171h564q81 0 122.5 19t61.5 35q-119 -147 -255 -182q-30 -8 -61 -8h-648q56 54 72 90q28 64 28 149v1064h-187l38 31q128 105 156 105h456q-11 0 -60 -43t-68 -58q-46 -35 -66 -35h-74v-996zM516 -547q82 82 82 169q0 33 -16 47q-16 13 -60 -15
q-4 -2 -4 -1l-84 133q-2 2 9 11t28 21.5t38 26t39 25.5q41 26 42 25q21 -34 44.5 -68t37.5 -86.5t-8 -119.5t-72 -117q-9 -9 -30 -22q-37 -21 -46 -29z" />
    <glyph glyph-name="lcommaaccent" unicode="&#x13c;" horiz-adv-x="552" 
d="M556 124q-33 -26 -63 -52t-62 -46q-71 -46 -147 -46q-110 0 -120 152q-2 41 -2 80v1070q0 137 -62 178q-26 18 -50 18q-32 0 -43 -1.5t-19 -2.5q144 100 182 120q50 27 103.5 53.5t82.5 41.5v-1380q0 -41 0.5 -76t11.5 -61q25 -54 126 -54q32 0 62 6zM232 -547
q82 82 82 169q0 33 -16 47q-16 13 -60 -15q-4 -2 -4 -1l-84 133q-2 2 9 11t28 21.5t38 26t39 25.5q41 26 42 25q21 -34 44.5 -68t37.5 -86.5t-8 -119.5t-72 -117q-9 -9 -30 -22q-37 -21 -46 -29z" />
    <glyph glyph-name="Lcaron" unicode="&#x13d;" horiz-adv-x="1121" 
d="M444 307q0 -111 -79 -171h564q81 0 122.5 19t61.5 35q-119 -147 -255 -182q-30 -8 -61 -8h-648q56 54 72 90q28 64 28 149v1064h-187l38 31q128 105 156 105h456q-11 0 -60 -43t-68 -58q-46 -35 -66 -35h-74v-996zM810 1266q82 82 82 170q0 32 -17 46q-15 13 -59 -15
q-4 -2 -4 -1l-84 134q-3 7 64 51q90 59 92 57q21 -34 45 -68t38 -86.5t-8.5 -119t-72.5 -117.5q-9 -9 -30 -22q-37 -21 -46 -29z" />
    <glyph glyph-name="lcaron" unicode="&#x13e;" horiz-adv-x="686" 
d="M556 124q-33 -26 -63 -52t-62 -46q-71 -46 -147 -46q-110 0 -120 152q-2 41 -2 80v1070q0 137 -62 178q-26 18 -50 18q-32 0 -43 -1.5t-19 -2.5q144 100 182 120q50 27 103.5 53.5t82.5 41.5v-1380q0 -41 0.5 -76t11.5 -61q25 -54 126 -54q32 0 62 6zM525 1229
q82 82 82 170q0 32 -17 46q-15 13 -59 -15q-4 -2 -4 -1l-84 134q-3 7 64 51q90 59 92 57q21 -34 45 -68t38 -86.5t-8.5 -119t-72.5 -117.5q-9 -9 -30 -22q-37 -21 -46 -29z" />
    <glyph glyph-name="Ldot" unicode="&#x13f;" horiz-adv-x="1166" 
d="M444 307q0 -111 -79 -171h564q81 0 122.5 19t61.5 35q-119 -147 -255 -182q-30 -8 -61 -8h-648q56 54 72 90q28 64 28 149v1064h-187l38 31q128 105 156 105h456q-11 0 -60 -43t-68 -58q-46 -35 -66 -35h-74v-996zM1111 706l-194 -136l-105 167l194 136z" />
    <glyph glyph-name="ldotaccent" unicode="&#x140;" horiz-adv-x="766" 
d="M556 124q-33 -26 -63 -52t-62 -46q-71 -46 -147 -46q-110 0 -120 152q-2 41 -2 80v1070q0 137 -62 178q-26 18 -50 18q-32 0 -43 -1.5t-19 -2.5q144 100 182 120q50 27 103.5 53.5t82.5 41.5v-1380q0 -41 0.5 -76t11.5 -61q25 -54 126 -54q32 0 62 6zM763 706l-194 -136
l-105 167l194 136z" />
    <glyph glyph-name="Lslash" unicode="&#x141;" horiz-adv-x="1118" 
d="M441 307q0 -111 -79 -171h564q81 0 122.5 19t61.5 35q-119 -147 -254 -182q-31 -8 -62 -8h-648q56 54 72 90q28 64 28 149v316q-80 -32 -143 -51l-10 23q51 33 153 97v679h-187l39 31q127 105 155 105h456q-11 0 -60 -43t-69 -58q-45 -35 -65 -35h-74v-560q75 49 165 129
q62 -11 120 -1t94 30q-164 -140 -379 -255v-339z" />
    <glyph glyph-name="lslash" unicode="&#x142;" horiz-adv-x="614" 
d="M-30 527l200 133v622q0 137 -62 178q-26 18 -50 18q-32 0 -43 -1.5t-19 -2.5q144 100 182 120q50 27 103.5 53.5t82.5 41.5v-877l68 60q62 -11 120.5 -1t94.5 30q-125 -107 -283 -207v-385q0 -41 0.5 -76t11.5 -61q25 -54 126 -54q32 0 62 6q-33 -26 -63 -52t-62 -46
q-71 -46 -131 -46t-84.5 21.5t-36.5 55.5q-17 48 -17 155v374q-105 -52 -190 -82z" />
    <glyph glyph-name="Nacute" unicode="&#x143;" horiz-adv-x="1824" 
d="M1401 343q23 266 23 504.5t-19 455.5h-178q12 9 39.5 31.5t57.5 45.5q76 59 97 59h377q-22 -7 -67.5 -48t-71 -61t-50.5 -26q2 -24 2 -48v-48l-3 -223q0 -368 -79 -778q-2 -10 -4 -24t-5 -29q-5 -35 -12 -50.5t-27 -35t-44 -38.5q-28 -24 -85 -64q-12 75 -86 167
q-357 446 -805 944v-493q0 -293 -45 -379q-25 -45 -46 -69h323q-12 -9 -39.5 -31.5t-57.5 -46.5q-76 -58 -97 -58h-329q86 124 98 326q4 58 4 318.5t-22 658.5h-227q12 9 39.5 31.5t57.5 45.5q76 59 97 59h377q-26 -9 -52 -34t-35 -33q268 -284 456.5 -507.5t272.5 -321
t165 -200.5zM903 1355v12q79 52 137 119q70 81 155 196q1 2 57 43t62 45.5t19 11.5t25 14t26 15q-27 -35 -56.5 -75.5t-77.5 -93.5q-105 -116 -201.5 -188t-145.5 -99z" />
    <glyph glyph-name="nacute" unicode="&#x144;" horiz-adv-x="1143" 
d="M190 68l1 643q0 67 -18 90q-31 40 -86 40t-98 -16q26 10 68 47q77 71 109 83q60 24 105.5 24t68 -15t32.5 -40q13 -31 13 -118q187 165 350 165q89 0 155 -56q69 -60 69 -146v-494q0 -74 16 -102q30 -53 100 -53q40 0 76 15q-89 -77 -123 -99q-78 -51 -136.5 -51t-83 21
t-34.5 53q-11 35 -11 143v374q0 179 -117 236q-42 20 -101 20q-145 0 -157 -215q-3 -54 -3 -97v-309q0 -64 39 -87q14 -9 35 -9t44 10q-21 -18 -50 -43t-61 -48q-79 -54 -126 -54q-76 0 -76 88zM542 1021v12q79 52 137 119q70 81 155 196q1 2 57 43t62 45.5t19 11.5t25 14
t26 15q-27 -35 -56.5 -75.5t-77.5 -93.5q-105 -116 -201.5 -188t-145.5 -99z" />
    <glyph glyph-name="Ncommaaccent" unicode="&#x145;" horiz-adv-x="1824" 
d="M1401 343q23 266 23 504.5t-19 455.5h-178q12 9 39.5 31.5t57.5 45.5q76 59 97 59h377q-22 -7 -67.5 -48t-71 -61t-50.5 -26q2 -24 2 -48v-48l-3 -223q0 -368 -79 -778q-2 -10 -4 -24t-5 -29q-5 -35 -12 -50.5t-27 -35t-44 -38.5q-28 -24 -85 -64q-12 75 -86 167
q-357 446 -805 944v-493q0 -293 -45 -379q-25 -45 -46 -69h323q-12 -9 -39.5 -31.5t-57.5 -46.5q-76 -58 -97 -58h-329q86 124 98 326q4 58 4 318.5t-22 658.5h-227q12 9 39.5 31.5t57.5 45.5q76 59 97 59h377q-26 -9 -52 -34t-35 -33q268 -284 456.5 -507.5t272.5 -321
t165 -200.5zM868 -547q82 82 82 169q0 33 -16 47q-16 13 -60 -15q-4 -2 -4 -1l-84 133q-2 2 9 11t28 21.5t38 26t39 25.5q41 26 42 25q21 -34 44.5 -68t37.5 -86.5t-8 -119.5t-72 -117q-9 -9 -30 -22q-37 -21 -46 -29z" />
    <glyph glyph-name="ncommaaccent" unicode="&#x146;" horiz-adv-x="1143" 
d="M190 68l1 643q0 67 -18 90q-31 40 -86 40t-98 -16q26 10 68 47q77 71 109 83q60 24 105.5 24t68 -15t32.5 -40q13 -31 13 -118q187 165 350 165q89 0 155 -56q69 -60 69 -146v-494q0 -74 16 -102q30 -53 100 -53q40 0 76 15q-89 -77 -123 -99q-78 -51 -136.5 -51t-83 21
t-34.5 53q-11 35 -11 143v374q0 179 -117 236q-42 20 -101 20q-145 0 -157 -215q-3 -54 -3 -97v-309q0 -64 39 -87q14 -9 35 -9t44 10q-21 -18 -50 -43t-61 -48q-79 -54 -126 -54q-76 0 -76 88zM527 -547q82 82 82 169q0 33 -16 47q-16 13 -60 -15q-4 -2 -4 -1l-84 133
q-2 2 9 11t28 21.5t38 26t39 25.5q41 26 42 25q21 -34 44.5 -68t37.5 -86.5t-8 -119.5t-72 -117q-9 -9 -30 -22q-37 -21 -46 -29z" />
    <glyph glyph-name="Ncaron" unicode="&#x147;" horiz-adv-x="1824" 
d="M1401 343q23 266 23 504.5t-19 455.5h-178q12 9 39.5 31.5t57.5 45.5q76 59 97 59h377q-22 -7 -67.5 -48t-71 -61t-50.5 -26q2 -24 2 -48v-48l-3 -223q0 -368 -79 -778q-2 -10 -4 -24t-5 -29q-5 -35 -12 -50.5t-27 -35t-44 -38.5q-28 -24 -85 -64q-12 75 -86 167
q-357 446 -805 944v-493q0 -293 -45 -379q-25 -45 -46 -69h323q-12 -9 -39.5 -31.5t-57.5 -46.5q-76 -58 -97 -58h-329q86 124 98 326q4 58 4 318.5t-22 658.5h-227q12 9 39.5 31.5t57.5 45.5q76 59 97 59h377q-26 -9 -52 -34t-35 -33q268 -284 456.5 -507.5t272.5 -321
t165 -200.5zM581 1666q171 137 190 137q7 0 101.5 -103.5t98.5 -108.5l83 79q11 10 27 18.5t39 22.5q93 59 123 88l-250 -238q-104 -87 -143.5 -110t-42.5 -23t-19 16t-39 41t-50.5 54.5t-52 56t-42.5 46t-23 24.5z" />
    <glyph glyph-name="ncaron" unicode="&#x148;" horiz-adv-x="1143" 
d="M190 68l1 643q0 67 -18 90q-31 40 -86 40t-98 -16q26 10 68 47q77 71 109 83q60 24 105.5 24t68 -15t32.5 -40q13 -31 13 -118q187 165 350 165q89 0 155 -56q69 -60 69 -146v-494q0 -74 16 -102q30 -53 100 -53q40 0 76 15q-89 -77 -123 -99q-78 -51 -136.5 -51t-83 21
t-34.5 53q-11 35 -11 143v374q0 179 -117 236q-42 20 -101 20q-145 0 -157 -215q-3 -54 -3 -97v-309q0 -64 39 -87q14 -9 35 -9t44 10q-21 -18 -50 -43t-61 -48q-79 -54 -126 -54q-76 0 -76 88zM240 1290q171 137 190 137q7 0 101.5 -103.5t98.5 -108.5l83 79q11 10 27 18.5
t39 22.5q93 59 123 88l-250 -238q-104 -87 -143.5 -110t-42.5 -23t-19 16t-39 41t-50.5 54.5t-52 56t-42.5 46t-23 24.5z" />
    <glyph glyph-name="napostrophe" unicode="&#x149;" horiz-adv-x="1388" 
d="M83 864q82 82 82 170q0 32 -17 46q-15 13 -59 -15q-4 -2 -4 -1l-84 134q-3 7 64 51q90 59 92 57q21 -34 45 -68t38 -86.5t-8.5 -119t-72.5 -117.5q-9 -9 -30 -22q-37 -21 -46 -29zM435 68l1 643q0 67 -18 90q-31 40 -86 40t-98 -16q26 10 68 47q77 71 109 83
q60 24 105.5 24t68 -15t32.5 -40q13 -31 13 -118q187 165 350 165q89 0 155 -56q69 -60 69 -146v-494q0 -74 16 -102q30 -53 100 -53q40 0 76 15q-89 -77 -123 -99q-78 -51 -136.5 -51t-83 21t-34.5 53q-11 35 -11 143v374q0 179 -117 236q-42 20 -101 20q-145 0 -157 -215
q-3 -54 -3 -97v-309q0 -64 39 -87q14 -9 35 -9t44 10q-21 -18 -50 -43t-61 -48q-79 -54 -126 -54q-76 0 -76 88z" />
    <glyph glyph-name="Eng" unicode="&#x14a;" horiz-adv-x="1824" 
d="M1398 343q23 266 23 504.5t-19 455.5h-178q159 136 194 136h377q-14 -2 -63 -46q-96 -83 -126 -89q9 -159 9 -348q0 -464 -71 -854q-26 -138 -158 -290q-128 -149 -294 -246q-176 -102 -322 -102q-52 0 -119.5 21.5t-93.5 34.5q-59 30 -59 58q0 10 6.5 17.5t25.5 32.5
q69 86 209 143q-52 -38 -52 -58.5t19 -40t56 -36.5q80 -36 187.5 -36t175 30t116.5 82q104 112 104 276q0 60 -308 420q-95 111 -189 225q-171 204 -390 444q5 -187 5 -260v-119q0 -405 -50 -493q-23 -46 -46 -69h323q-166 -136 -194 -136h-339q93 101 103 278
q22 407 -13 1025h-227q159 136 194 136h377q-23 -3 -87 -67q285 -302 465 -516.5t264 -312t165 -200.5z" />
    <glyph glyph-name="eng" unicode="&#x14b;" horiz-adv-x="1143" 
d="M267 -20q-76 0 -76 88v566q0 94 -13 127q-26 70 -102 70q-43 0 -86 -16q27 11 68 48q81 71 111 83q58 23 103.5 23t68 -15t32.5 -40q13 -32 13 -118q117 106 261 148q49 15 100.5 15t93.5 -18t69 -51q53 -63 53 -179v-742q0 -242 -112 -472q-80 -163 -210 -235
q-67 -36 -150 -36q-44 0 -63 26q-6 9 -6 23.5t8 26.5t20 21.5t25.5 17.5t36.5 23q87 53 127 89q-23 -20 -23 -38.5t5.5 -27.5t14.5 -15q16 -11 41 -11q91 164 91 474v681q0 152 -30.5 206t-76 77.5t-101.5 23.5t-80.5 -16t-41.5 -42.5t-27.5 -60.5t-15.5 -68q-9 -63 -9 -126
v-299q0 -64 39 -87q14 -9 35 -9t44 10q-21 -18 -50 -43t-62 -48q-78 -54 -125 -54z" />
    <glyph glyph-name="Omacron" unicode="&#x14c;" horiz-adv-x="1756" 
d="M1673 834q0 -103 -35 -215.5t-96.5 -215t-146.5 -191.5t-185 -154q-214 -139 -437 -139q-315 0 -499 183q-185 183 -185 497q0 237 131 445q124 199 332 318q211 121 449 121q274 0 471 -181q201 -185 201 -468zM1478 674q0 139 -48.5 265.5t-137.5 216.5
q-186 187 -495 187q-403 0 -487 -339q-26 -107 -26 -254t45.5 -278.5t133.5 -225.5q184 -195 508 -195q259 0 391 180q116 158 116 443zM1336 1689q-13 -2 -41.5 -27t-48.5 -42.5t-39 -32.5q-44 -35 -65 -35h-722q10 1 64.5 48t83 68t46.5 21h722z" />
    <glyph glyph-name="omacron" unicode="&#x14d;" 
d="M1001.5 731.5q28.5 -74.5 28.5 -149.5t-22 -146.5t-61.5 -137.5t-93 -123.5t-117.5 -100.5q-136 -91 -275 -91q-163 0 -277 127q-111 122 -111 286q0 140 85 281q127 214 346 289q70 25 148 25t148.5 -34.5t121.5 -92.5t79.5 -132.5zM449 857q-100 0 -146 -97
q-36 -76 -36 -172t25.5 -178.5t75.5 -147.5q111 -146 286 -146q102 0 148 102q33 76 33 175q0 193 -107.5 328.5t-278.5 135.5zM1009 1199q-13 -2 -41.5 -27t-48.5 -42.5t-39 -32.5q-44 -35 -65 -35h-722q10 1 64.5 48t83 68t46.5 21h722z" />
    <glyph glyph-name="Obreve" unicode="&#x14e;" horiz-adv-x="1756" 
d="M1673 834q0 -103 -35 -215.5t-96.5 -215t-146.5 -191.5t-185 -154q-214 -139 -437 -139q-315 0 -499 183q-185 183 -185 497q0 237 131 445q124 199 332 318q211 121 449 121q274 0 471 -181q201 -185 201 -468zM1478 674q0 139 -48.5 265.5t-137.5 216.5
q-186 187 -495 187q-403 0 -487 -339q-26 -107 -26 -254t45.5 -278.5t133.5 -225.5q184 -195 508 -195q259 0 391 180q116 158 116 443zM1262 1925q-3 -129 -166 -256q-97 -76 -173.5 -100t-121.5 -24t-87 15t-78 41q-83 60 -138 179q-4 7 -4 12t14 17.5t35.5 26.5
t46.5 28.5t46 27.5q51 29 52 33q66 -159 184 -223q43 -24 79.5 -24t55.5 14t31 32q22 32 27 55.5t32.5 42.5t61.5 38.5t64.5 36.5t38.5 28z" />
    <glyph glyph-name="obreve" unicode="&#x14f;" 
d="M1001.5 731.5q28.5 -74.5 28.5 -149.5t-22 -146.5t-61.5 -137.5t-93 -123.5t-117.5 -100.5q-136 -91 -275 -91q-163 0 -277 127q-111 122 -111 286q0 140 85 281q127 214 346 289q70 25 148 25t148.5 -34.5t121.5 -92.5t79.5 -132.5zM449 857q-100 0 -146 -97
q-36 -76 -36 -172t25.5 -178.5t75.5 -147.5q111 -146 286 -146q102 0 148 102q33 76 33 175q0 193 -107.5 328.5t-278.5 135.5zM935 1426q-3 -129 -166 -256q-97 -76 -173.5 -100t-121.5 -24t-87 15t-78 41q-83 60 -138 179q-4 7 -4 12t14 17.5t35.5 26.5t46.5 28.5t46 27.5
q51 29 52 33q66 -159 184 -223q43 -24 79.5 -24t55.5 14t31 32q22 32 27 55.5t32.5 42.5t61.5 38.5t64.5 36.5t38.5 28z" />
    <glyph glyph-name="Ohungarumlaut" unicode="&#x150;" horiz-adv-x="1756" 
d="M1673 834q0 -103 -35 -215.5t-96.5 -215t-146.5 -191.5t-185 -154q-214 -139 -437 -139q-315 0 -499 183q-185 183 -185 497q0 237 131 445q124 199 332 318q211 121 449 121q274 0 471 -181q201 -185 201 -468zM1478 674q0 139 -48.5 265.5t-137.5 216.5
q-186 187 -495 187q-403 0 -487 -339q-26 -107 -26 -254t45.5 -278.5t133.5 -225.5q184 -195 508 -195q259 0 391 180q116 158 116 443zM946 1539v12q79 52 137 119q70 81 155 196q1 2 57 43t62 45.5t19 11.5t25 14t26 15q-27 -35 -56.5 -75.5t-77.5 -93.5
q-105 -116 -201.5 -188t-145.5 -99zM676 1539v12q79 52 137 119q70 81 155 196q1 2 57 43t62 45.5t19 11.5t25 14t26 15q-27 -35 -56.5 -75.5t-77.5 -93.5q-105 -116 -201.5 -188t-145.5 -99z" />
    <glyph glyph-name="ohungarumlaut" unicode="&#x151;" 
d="M1001.5 731.5q28.5 -74.5 28.5 -149.5t-22 -146.5t-61.5 -137.5t-93 -123.5t-117.5 -100.5q-136 -91 -275 -91q-163 0 -277 127q-111 122 -111 286q0 140 85 281q127 214 346 289q70 25 148 25t148.5 -34.5t121.5 -92.5t79.5 -132.5zM449 857q-100 0 -146 -97
q-36 -76 -36 -172t25.5 -178.5t75.5 -147.5q111 -146 286 -146q102 0 148 102q33 76 33 175q0 193 -107.5 328.5t-278.5 135.5zM581 1033v12q79 52 137 119q70 81 155 196q1 2 57 43t62 45.5t19 11.5t25 14t26 15q-27 -35 -56.5 -75.5t-77.5 -93.5q-105 -116 -201.5 -188
t-145.5 -99zM311 1033v12q79 52 137 119q70 81 155 196q1 2 57 43t62 45.5t19 11.5t25 14t26 15q-27 -35 -56.5 -75.5t-77.5 -93.5q-105 -116 -201.5 -188t-145.5 -99z" />
    <glyph glyph-name="OE" unicode="&#x152;" horiz-adv-x="2367" 
d="M1379 1373q84 66 107 66h826q-13 -1 -66.5 -47.5t-82 -67.5t-46.5 -21h-444v-485h485q-11 -1 -35.5 -22.5t-54.5 -46.5q-79 -67 -104 -67h-291v-326q0 -111 -33 -182q-14 -28 -35 -38h556q54 0 118 26l63 26q-50 -60 -219 -150q-72 -38 -97 -38h-637q90 122 90 239v71
q-211 -275 -506 -362q-99 -29 -228 -29t-255.5 47t-215.5 136q-185 183 -185 497q0 237 131 445q124 199 332 318q211 121 434 121t393 -110zM1338 682q94 74 132 102q-38 259 -217 408q-182 151 -456 151q-403 0 -487 -339q-26 -107 -26 -254t45.5 -278.5t133.5 -225.5
q184 -195 508 -195q260 0 391 180q116 158 116 428v23h-140z" />
    <glyph glyph-name="oe" unicode="&#x153;" horiz-adv-x="1634" 
d="M1052 373q67 -252 321 -252q106 0 223 64q-140 -153 -341 -191q-46 -8 -97 -8q-201 0 -285 211q-131 -151 -299 -198q-56 -16 -126 -16t-141 34.5t-123 92.5q-111 122 -111 286q0 140 85 281q127 214 346 289q70 25 136 25t118.5 -18t97.5 -49q86 -62 135 -168
q131 154 283 206q50 18 89.5 18t65 -12t43.5 -32q39 -43 39 -98t-24 -101.5t-62.5 -90.5t-88 -84.5t-100.5 -75.5q-72 -50 -184 -113zM1293 586.5q27 42.5 27 83.5t-9 69.5t-27 50.5q-38 50 -85.5 50t-72 -16t-41.5 -42t-27.5 -59t-15.5 -67q-10 -60 -10 -120.5t9 -114.5
q104 28 164.5 75.5t87.5 90zM449 857q-100 0 -146 -97q-36 -76 -36 -172t25.5 -178.5t75.5 -147.5q111 -146 286 -146q102 0 148 102q33 76 33 175q0 193 -107.5 328.5t-278.5 135.5z" />
    <glyph glyph-name="Racute" unicode="&#x154;" horiz-adv-x="1433" 
d="M712 1439q462 0 462 -301q0 -146 -124 -272q-98 -99 -254 -174q78 -31 154 -115q21 -24 44 -49l260 -288q68 -77 98.5 -92t50.5 -15q46 0 96 32q-120 -170 -298 -170q-45 0 -89 51q-11 13 -23 26l-267 295q-57 63 -97 105.5t-79 68.5q-74 49 -202 49v-202q0 -98 -8 -131
q-13 -49 -63 -121h320q-13 -2 -41.5 -27t-48.5 -42.5t-39 -32.5q-45 -34 -65 -34h-329q80 88 80 239v1064h-216l38 31q128 105 156 105h484zM980 993q0 86 -37 145t-96 96q-110 69 -279 69h-124v-573h156q179 0 264 45q116 61 116 218zM594 1489v12q79 52 137 119
q70 81 155 196q1 2 57 43t62 45.5t19 11.5t25 14t26 15q-27 -35 -56.5 -75.5t-77.5 -93.5q-105 -116 -201.5 -188t-145.5 -99z" />
    <glyph glyph-name="racute" unicode="&#x155;" horiz-adv-x="884" 
d="M970 972q-121 -178 -293 -178q-28 0 -72 22q-84 42 -113.5 42t-47.5 -19t-30 -53q-27 -74 -27 -192v-383q0 -64 39 -87q14 -9 35 -9t44 10q-20 -18 -39 -42.5t-43 -47.5q-57 -55 -135 -55q-40 0 -68 25.5t-28 62.5v576q0 35 1 70t-7 64q-19 63 -109 63q-43 0 -86 -16
q26 9 67 47q80 72 111 84q64 23 103.5 23t61 -11.5t33.5 -31.5q20 -33 20 -102q29 22 63.5 49.5t71.5 52.5q89 59 155 59q39 0 82 -22t64 -32t39 -10q40 0 108 41zM375 1050v12q79 52 137 119q70 81 155 196q1 2 57 43t62 45.5t19 11.5t25 14t26 15q-27 -35 -56.5 -75.5
t-77.5 -93.5q-105 -116 -201.5 -188t-145.5 -99z" />
    <glyph glyph-name="Rcommaaccent" unicode="&#x156;" horiz-adv-x="1433" 
d="M712 1439q462 0 462 -301q0 -146 -124 -272q-98 -99 -254 -174q78 -31 154 -115q21 -24 44 -49l260 -288q68 -77 98.5 -92t50.5 -15q46 0 96 32q-120 -170 -298 -170q-45 0 -89 51q-11 13 -23 26l-267 295q-57 63 -97 105.5t-79 68.5q-74 49 -202 49v-202q0 -98 -8 -131
q-13 -49 -63 -121h320q-13 -2 -41.5 -27t-48.5 -42.5t-39 -32.5q-45 -34 -65 -34h-329q80 88 80 239v1064h-216l38 31q128 105 156 105h484zM980 993q0 86 -37 145t-96 96q-110 69 -279 69h-124v-573h156q179 0 264 45q116 61 116 218zM672 -547q82 82 82 169q0 33 -16 47
q-16 13 -60 -15q-4 -2 -4 -1l-84 133q-2 2 9 11t28 21.5t38 26t39 25.5q41 26 42 25q21 -34 44.5 -68t37.5 -86.5t-8 -119.5t-72 -117q-9 -9 -30 -22q-37 -21 -46 -29z" />
    <glyph glyph-name="rcommaaccent" unicode="&#x157;" horiz-adv-x="884" 
d="M970 972q-121 -178 -293 -178q-28 0 -72 22q-84 42 -113.5 42t-47.5 -19t-30 -53q-27 -74 -27 -192v-383q0 -64 39 -87q14 -9 35 -9t44 10q-20 -18 -39 -42.5t-43 -47.5q-57 -55 -135 -55q-40 0 -68 25.5t-28 62.5v576q0 35 1 70t-7 64q-19 63 -109 63q-43 0 -86 -16
q26 9 67 47q80 72 111 84q64 23 103.5 23t61 -11.5t33.5 -31.5q20 -33 20 -102q29 22 63.5 49.5t71.5 52.5q89 59 155 59q39 0 82 -22t64 -32t39 -10q40 0 108 41zM398 -547q82 82 82 169q0 33 -16 47q-16 13 -60 -15q-4 -2 -4 -1l-84 133q-2 2 9 11t28 21.5t38 26t39 25.5
q41 26 42 25q21 -34 44.5 -68t37.5 -86.5t-8 -119.5t-72 -117q-9 -9 -30 -22q-37 -21 -46 -29z" />
    <glyph glyph-name="Rcaron" unicode="&#x158;" horiz-adv-x="1433" 
d="M712 1439q462 0 462 -301q0 -146 -124 -272q-98 -99 -254 -174q78 -31 154 -115q21 -24 44 -49l260 -288q68 -77 98.5 -92t50.5 -15q46 0 96 32q-120 -170 -298 -170q-45 0 -89 51q-11 13 -23 26l-267 295q-57 63 -97 105.5t-79 68.5q-74 49 -202 49v-202q0 -98 -8 -131
q-13 -49 -63 -121h320q-13 -2 -41.5 -27t-48.5 -42.5t-39 -32.5q-45 -34 -65 -34h-329q80 88 80 239v1064h-216l38 31q128 105 156 105h484zM980 993q0 86 -37 145t-96 96q-110 69 -279 69h-124v-573h156q179 0 264 45q116 61 116 218zM385 1754q171 137 190 137
q7 0 101.5 -103.5t98.5 -108.5l83 79q11 10 27 18.5t39 22.5q93 59 123 88l-250 -238q-104 -87 -143.5 -110t-42.5 -23t-19 16t-39 41t-50.5 54.5t-52 56t-42.5 46t-23 24.5z" />
    <glyph glyph-name="rcaron" unicode="&#x159;" horiz-adv-x="884" 
d="M970 972q-121 -178 -293 -178q-28 0 -72 22q-84 42 -113.5 42t-47.5 -19t-30 -53q-27 -74 -27 -192v-383q0 -64 39 -87q14 -9 35 -9t44 10q-20 -18 -39 -42.5t-43 -47.5q-57 -55 -135 -55q-40 0 -68 25.5t-28 62.5v576q0 35 1 70t-7 64q-19 63 -109 63q-43 0 -86 -16
q26 9 67 47q80 72 111 84q64 23 103.5 23t61 -11.5t33.5 -31.5q20 -33 20 -102q29 22 63.5 49.5t71.5 52.5q89 59 155 59q39 0 82 -22t64 -32t39 -10q40 0 108 41zM203 1273q171 137 190 137q7 0 101.5 -103.5t98.5 -108.5l83 79q11 10 27 18.5t39 22.5q93 59 123 88
l-250 -238q-104 -87 -143.5 -110t-42.5 -23t-19 16t-39 41t-50.5 54.5t-52 56t-42.5 46t-23 24.5z" />
    <glyph glyph-name="Sacute" unicode="&#x15a;" horiz-adv-x="1157" 
d="M789 1207q34 34 34 49.5t-14.5 26.5t-37 19t-50 13.5t-53.5 8.5q-52 6 -88.5 6t-84 -7t-87.5 -27q-91 -46 -91 -137t33.5 -145.5t87.5 -90.5t123.5 -60t142.5 -45t142.5 -45t123.5 -61q121 -83 121 -231q0 -145 -123 -269q-105 -106 -279 -174q-157 -62 -301 -62
q-89 0 -161.5 21t-102.5 37q-70 35 -70 83q0 77 229 202q-30 -33 -30 -63.5t19.5 -52t50.5 -37t69.5 -25.5t76.5 -16q70 -11 127 -11t112 10.5t98 36.5q97 58 97 183q0 194 -246 288q-70 26 -143.5 49.5t-143.5 48.5t-124 60q-122 80 -122 211q0 109 123 225
q106 100 267 172q153 69 261 69q97 0 156 -18t74.5 -27.5t15.5 -22t-14 -30t-36 -37.5t-48.5 -40t-52.5 -37q-60 -39 -81 -48zM477 1448v12q79 52 137 119q70 81 155 196q1 2 57 43t62 45.5t19 11.5t25 14t26 15q-27 -35 -56.5 -75.5t-77.5 -93.5q-105 -116 -201.5 -188
t-145.5 -99z" />
    <glyph glyph-name="sacute" unicode="&#x15b;" horiz-adv-x="833" 
d="M512 776q19 14 19 30t-19 25t-44 14q-39 8 -72.5 8t-52 -3.5t-31.5 -12.5q-28 -19 -28 -67t21 -78.5t55.5 -51.5t78.5 -35t89.5 -27.5t89.5 -29.5t78 -42q77 -56 77 -154q0 -97 -93 -190q-79 -79 -208 -134q-120 -52 -214 -52q-114 0 -183 48q-25 18 -25 46.5t26 52
t61 44t70 39t53 39.5q-18 -20 -18 -45t28 -42.5t66 -27.5q66 -16 127 -16t88.5 22.5t27.5 75.5t-21 86.5t-55 57.5t-78 40.5t-89.5 32t-89.5 31.5t-78 39q-76 51 -76 133q0 78 92 167q80 76 167 119q149 72 225 72q79 0 114 -17t35 -29.5t-8 -22.5t-19.5 -18.5t-23.5 -15.5
t-34 -21t-59 -37.5t-69 -52.5zM315 979v12q79 52 137 119q70 81 155 196q1 2 57 43t62 45.5t19 11.5t25 14t26 15q-27 -35 -56.5 -75.5t-77.5 -93.5q-105 -116 -201.5 -188t-145.5 -99z" />
    <glyph glyph-name="Scircumflex" unicode="&#x15c;" horiz-adv-x="1157" 
d="M789 1207q34 34 34 49.5t-14.5 26.5t-37 19t-50 13.5t-53.5 8.5q-52 6 -88.5 6t-84 -7t-87.5 -27q-91 -46 -91 -137t33.5 -145.5t87.5 -90.5t123.5 -60t142.5 -45t142.5 -45t123.5 -61q121 -83 121 -231q0 -145 -123 -269q-105 -106 -279 -174q-157 -62 -301 -62
q-89 0 -161.5 21t-102.5 37q-70 35 -70 83q0 77 229 202q-30 -33 -30 -63.5t19.5 -52t50.5 -37t69.5 -25.5t76.5 -16q70 -11 127 -11t112 10.5t98 36.5q97 58 97 183q0 194 -246 288q-70 26 -143.5 49.5t-143.5 48.5t-124 60q-122 80 -122 211q0 109 123 225
q106 100 267 172q153 69 261 69q97 0 156 -18t74.5 -27.5t15.5 -22t-14 -30t-36 -37.5t-48.5 -40t-52.5 -37q-60 -39 -81 -48zM947 1666q-171 -137 -190 -137q-7 0 -101.5 103.5t-98.5 108.5l-83 -79q-11 -10 -27 -18.5t-39 -23.5q-93 -58 -123 -86l250 237q34 34 94 75
q85 58 90 58t21 -16t39 -41t50.5 -54.5t52 -55.5t42.5 -46t23 -25z" />
    <glyph glyph-name="scircumflex" unicode="&#x15d;" horiz-adv-x="833" 
d="M512 776q19 14 19 30t-19 25t-44 14q-39 8 -72.5 8t-52 -3.5t-31.5 -12.5q-28 -19 -28 -67t21 -78.5t55.5 -51.5t78.5 -35t89.5 -27.5t89.5 -29.5t78 -42q77 -56 77 -154q0 -97 -93 -190q-79 -79 -208 -134q-120 -52 -214 -52q-114 0 -183 48q-25 18 -25 46.5t26 52
t61 44t70 39t53 39.5q-18 -20 -18 -45t28 -42.5t66 -27.5q66 -16 127 -16t88.5 22.5t27.5 75.5t-21 86.5t-55 57.5t-78 40.5t-89.5 32t-89.5 31.5t-78 39q-76 51 -76 133q0 78 92 167q80 76 167 119q149 72 225 72q79 0 114 -17t35 -29.5t-8 -22.5t-19.5 -18.5t-23.5 -15.5
t-34 -21t-59 -37.5t-69 -52.5zM768 1188q-171 -137 -190 -137q-7 0 -101.5 103.5t-98.5 108.5l-83 -79q-11 -10 -27 -18.5t-39 -23.5q-93 -58 -123 -86l250 237q34 34 94 75q85 58 90 58t21 -16t39 -41t50.5 -54.5t52 -55.5t42.5 -46t23 -25z" />
    <glyph glyph-name="Scedilla" unicode="&#x15e;" horiz-adv-x="1157" 
d="M789 1207q34 34 34 49.5t-14.5 26.5t-37 19t-50 13.5t-53.5 8.5q-52 6 -88.5 6t-84 -7t-87.5 -27q-91 -46 -91 -137t33.5 -145.5t87.5 -90.5t123.5 -60t142.5 -45t142.5 -45t123.5 -61q121 -83 121 -231q0 -172 -167 -311q-145 -118 -353 -170l-104 -107q7 5 24.5 8
t41.5 6.5t58 -3t55 -24.5q50 -40 7 -117q-61 -108 -338 -264q26 26 57 46.5t55 36.5t36.5 42.5t14.5 55.5q7 104 -127 93q-37 -3 -72 -14q-8 -3 -2 3l190 198q4 3 9 7t25 19q-60 -10 -96.5 -10t-68.5 3t-69 10t-75 18t-68 27q-70 35 -70 83q0 77 229 202q-30 -33 -30 -63.5
t19.5 -52t50.5 -37t69.5 -25.5t76.5 -16q70 -11 127 -11t112 10.5t98 36.5q97 58 97 183q0 194 -246 288q-70 26 -143.5 49.5t-143.5 48.5t-124 60q-122 80 -122 211q0 109 123 225q106 100 267 172q153 69 261 69q97 0 156 -18t74.5 -27.5t15.5 -22t-14 -30t-36 -37.5
t-48.5 -40t-52.5 -37q-60 -39 -81 -48z" />
    <glyph glyph-name="scedilla" unicode="&#x15f;" horiz-adv-x="833" 
d="M520 783q11 11 11 25t-19 23t-44 14q-39 8 -72.5 8t-52 -3.5t-31.5 -12.5q-28 -19 -28 -67t21 -78.5t55.5 -51.5t78.5 -35t89.5 -27.5t89.5 -29.5t78 -42q77 -56 77 -154q0 -106 -110 -206q-97 -87 -234 -136l-114 -117q7 5 24.5 8t41.5 6.5t58 -3t55 -24.5
q50 -40 7 -117q-61 -108 -338 -264q26 26 57 46.5t55 36.5t36.5 42.5t14.5 55.5q7 104 -127 93q-37 -3 -72 -14q-8 -3 -2 3l190 198q5 4 12.5 10.5t23.5 17.5q-51 -12 -82 -12t-66 4.5t-69 15.5q-84 27 -84 73q0 47 87 97q35 21 70 39.5t53 39.5q-18 -20 -18 -45t28 -42.5
t66 -27.5q66 -16 127 -16t88.5 22.5t27.5 75.5t-21 86.5t-55 57.5t-78 40.5t-89.5 32t-89.5 31.5t-78 39q-76 51 -76 133q0 78 92 167q80 76 167 119q149 72 225 72q79 0 114 -17t35 -29.5t-8 -22.5t-19.5 -18.5t-23.5 -15.5t-33 -20q-85 -53 -121 -84zM520 783l-8 -7z" />
    <glyph glyph-name="Scaron" unicode="&#x160;" horiz-adv-x="1157" 
d="M789 1207q34 34 34 49.5t-14.5 26.5t-37 19t-50 13.5t-53.5 8.5q-52 6 -88.5 6t-84 -7t-87.5 -27q-91 -46 -91 -137t33.5 -145.5t87.5 -90.5t123.5 -60t142.5 -45t142.5 -45t123.5 -61q121 -83 121 -231q0 -145 -123 -269q-105 -106 -279 -174q-157 -62 -301 -62
q-89 0 -161.5 21t-102.5 37q-70 35 -70 83q0 77 229 202q-30 -33 -30 -63.5t19.5 -52t50.5 -37t69.5 -25.5t76.5 -16q70 -11 127 -11t112 10.5t98 36.5q97 58 97 183q0 194 -246 288q-70 26 -143.5 49.5t-143.5 48.5t-124 60q-122 80 -122 211q0 109 123 225
q106 100 267 172q153 69 261 69q97 0 156 -18t74.5 -27.5t15.5 -22t-14 -30t-36 -37.5t-48.5 -40t-52.5 -37q-60 -39 -81 -48zM311 1762q171 137 190 137q7 0 101.5 -103.5t98.5 -108.5l83 79q11 10 27 18.5t39 22.5q93 59 123 88l-250 -238q-104 -87 -143.5 -110t-42.5 -23
t-19 16t-39 41t-50.5 54.5t-52 56t-42.5 46t-23 24.5z" />
    <glyph glyph-name="scaron" unicode="&#x161;" horiz-adv-x="832" 
d="M512 776q19 14 19 30t-19 25t-44 14q-39 8 -72.5 8t-52 -3.5t-31.5 -12.5q-28 -19 -28 -67t21 -78.5t55.5 -51.5t78.5 -35t89.5 -27.5t89.5 -29.5t78 -42q77 -56 77 -154q0 -97 -93 -190q-79 -79 -208 -134q-120 -52 -214 -52q-114 0 -183 48q-25 18 -25 46.5t26 52
t61 44t70 39t53 39.5q-18 -20 -18 -45t28 -42.5t66 -27.5q66 -16 127 -16t88.5 22.5t27.5 75.5t-21 86.5t-55 57.5t-78 40.5t-89.5 32t-89.5 31.5t-78 39q-76 51 -76 133q0 78 92 167q80 76 167 119q149 72 225 72q79 0 114 -17t35 -29.5t-8 -22.5t-19.5 -18.5t-23.5 -15.5
t-34 -21t-59 -37.5t-69 -52.5zM130 1265q171 137 190 137q7 0 101.5 -103.5t98.5 -108.5l83 79q11 10 27 18.5t39 22.5q93 59 123 88l-250 -238q-104 -87 -143.5 -110t-42.5 -23t-19 16t-39 41t-50.5 54.5t-52 56t-42.5 46t-23 24.5z" />
    <glyph glyph-name="Tcommaaccent" unicode="&#x162;" horiz-adv-x="1248" 
d="M-18 1303q166 136 194 136h1128q-13 -2 -61 -44t-67 -57q-46 -35 -66 -35h-410v-915q0 -121 -41 -200q-18 -34 -40 -52h330q-14 -2 -62 -44t-67 -57q-46 -35 -66 -35h-348q60 54 75 91q24 59 24 148v1064h-523zM580 -547q82 82 82 169q0 33 -16 47q-16 13 -60 -15
q-4 -2 -4 -1l-84 133q-2 2 9 11t28 21.5t38 26t39 25.5q41 26 42 25q21 -34 44.5 -68t37.5 -86.5t-8 -119.5t-72 -117q-9 -9 -30 -22q-37 -21 -46 -29z" />
    <glyph glyph-name="tcommaaccent" unicode="&#x163;" horiz-adv-x="682" 
d="M47 867l130 102v142q54 38 77 58t39 29t33 19q43 25 46 30v-244h320q-13 -1 -66 -48q-101 -88 -128 -88h-126v-536q0 -184 106 -213q32 -8 60 -8q46 0 78 13.5t53 24.5q-61 -93 -171 -142q-57 -25 -122.5 -25t-101.5 23t-58 60q-39 68 -39 180v623h-130zM297 -547
q82 82 82 169q0 33 -16 47q-16 13 -60 -15q-4 -2 -4 -1l-84 133q-2 2 9 11t28 21.5t38 26t39 25.5q41 26 42 25q21 -34 44.5 -68t37.5 -86.5t-8 -119.5t-72 -117q-9 -9 -30 -22q-37 -21 -46 -29z" />
    <glyph glyph-name="Tcaron" unicode="&#x164;" horiz-adv-x="1248" 
d="M-18 1303q166 136 194 136h1128q-13 -2 -61 -44t-67 -57q-46 -35 -66 -35h-410v-915q0 -121 -41 -200q-18 -34 -40 -52h330q-14 -2 -62 -44t-67 -57q-46 -35 -66 -35h-348q60 54 75 91q24 59 24 148v1064h-523zM293 1730q171 137 190 137q7 0 101.5 -103.5t98.5 -108.5
l83 79q11 10 27 18.5t39 22.5q93 59 123 88l-250 -238q-104 -87 -143.5 -110t-42.5 -23t-19 16t-39 41t-50.5 54.5t-52 56t-42.5 46t-23 24.5z" />
    <glyph glyph-name="tcaron" unicode="&#x165;" horiz-adv-x="927" 
d="M47 867l130 102v142q54 38 77 58t39 29t33 19q43 25 46 30v-244h320q-13 -1 -66 -48q-101 -88 -128 -88h-126v-536q0 -184 106 -213q32 -8 60 -8q46 0 78 13.5t53 24.5q-61 -93 -171 -142q-57 -25 -122.5 -25t-101.5 23t-58 60q-39 68 -39 180v623h-130zM765 994
q82 82 82 170q0 32 -17 46q-15 13 -59 -15q-4 -2 -4 -1l-84 134q-3 7 64 51q90 59 92 57q21 -34 45 -68t38 -86.5t-8.5 -119t-72.5 -117.5q-9 -9 -30 -22q-37 -21 -46 -29z" />
    <glyph glyph-name="Tbar" unicode="&#x166;" horiz-adv-x="1248" 
d="M-18 1303q166 136 194 136h1128q-13 -2 -61 -44t-67 -57q-46 -35 -66 -35h-410v-490h247q-15 -2 -50.5 -26t-60.5 -41t-50 -33q-58 -38 -86 -43v-282q0 -121 -41 -200q-18 -34 -40 -52h330q-14 -2 -62 -44t-67 -57q-46 -35 -66 -35h-348q60 54 75 91q24 59 24 148v430
h-223q12 0 69 39q122 82 154 96v499h-523z" />
    <glyph glyph-name="tbar" unicode="&#x167;" horiz-adv-x="682" 
d="M47 867l130 102v142q54 38 77 58t39 29t33 19q43 25 46 30v-244h320q-13 -1 -66 -48q-101 -88 -128 -88h-126v-252h164q-14 -2 -53 -37q-82 -72 -111 -89v-158q0 -184 106 -213q32 -8 60 -8q46 0 78 13.5t53 24.5q-61 -93 -171 -142q-57 -25 -122.5 -25t-101.5 23t-58 60
q-39 68 -39 180v235h-141q10 0 44 29q66 58 97 81v278h-130z" />
    <glyph glyph-name="Utilde" unicode="&#x168;" horiz-adv-x="1724" 
d="M1728 1440q-21 -6 -46 -28t-52 -46q-68 -62 -97 -62h-74v-915q0 -110 -45 -199q-15 -31 -36 -53h330q-24 -7 -73.5 -52.5t-75 -64.5t-46.5 -19h-328q60 84 69.5 131t10.5 83q-159 -115 -258 -159q-186 -83 -328 -83t-227 35t-136 100q-97 122 -97 366v830h-169
q12 9 39 31.5t58 46.5q77 58 97 58h417q-24 -7 -73.5 -52.5t-75 -64.5t-46.5 -19h-53v-773q0 -204 124 -315q119 -105 326 -105q141 0 315 87q50 25 87 53v1053h-188q12 9 39.5 31.5t58.5 46.5q77 58 97 58h456zM1324 1761q-208 -239 -406 -239q-61 0 -96.5 23t-53.5 38.5
t-39 29.5q-46 32 -105 32q-60 0 -225 -129q140 203 328 254q43 11 87 11t75.5 -19.5t63.5 -42.5q86 -62 166 -62q57 0 156 73q25 18 49 31z" />
    <glyph glyph-name="utilde" unicode="&#x169;" horiz-adv-x="1170" 
d="M670 828q161 145 236 145t75 -96v-635q0 -60 27 -90t90 -30q44 0 86 16q-33 -12 -59.5 -37.5t-56.5 -51.5q-75 -65 -171 -65q-92 0 -105 102q-3 29 -4 59q-218 -165 -387 -165q-114 0 -172 100q-52 90 -52 246v337q0 87 -15 118q-28 62 -101 62q-35 0 -71 -15
q122 109 198 138q37 15 77 15q109 0 109 -139v-67l-1 -373q0 -143 53 -210q58 -76 193 -76q66 0 137 57q18 14 32 24v528q0 74 -36 102q-15 11 -37 11t-45 -10zM1047 1304q-208 -239 -406 -239q-61 0 -96.5 23t-53.5 38.5t-39 29.5q-46 32 -105 32q-60 0 -225 -129
q140 203 328 254q43 11 87 11t75.5 -19.5t63.5 -42.5q86 -62 166 -62q57 0 156 73q25 18 49 31z" />
    <glyph glyph-name="Umacron" unicode="&#x16a;" horiz-adv-x="1724" 
d="M1728 1440q-21 -6 -46 -28t-52 -46q-68 -62 -97 -62h-74v-915q0 -110 -45 -199q-15 -31 -36 -53h330q-24 -7 -73.5 -52.5t-75 -64.5t-46.5 -19h-328q60 84 69.5 131t10.5 83q-159 -115 -258 -159q-186 -83 -328 -83t-227 35t-136 100q-97 122 -97 366v830h-169
q12 9 39 31.5t58 46.5q77 58 97 58h417q-24 -7 -73.5 -52.5t-75 -64.5t-46.5 -19h-53v-773q0 -204 124 -315q119 -105 326 -105q141 0 315 87q50 25 87 53v1053h-188q12 9 39.5 31.5t58.5 46.5q77 58 97 58h456zM1320 1680q-13 -2 -41.5 -27t-48.5 -42.5t-39 -32.5
q-44 -35 -65 -35h-722q10 1 64.5 48t83 68t46.5 21h722z" />
    <glyph glyph-name="umacron" unicode="&#x16b;" horiz-adv-x="1170" 
d="M670 828q161 145 236 145t75 -96v-635q0 -60 27 -90t90 -30q44 0 86 16q-33 -12 -59.5 -37.5t-56.5 -51.5q-75 -65 -171 -65q-92 0 -105 102q-3 29 -4 59q-218 -165 -387 -165q-114 0 -172 100q-52 90 -52 246v337q0 87 -15 118q-28 62 -101 62q-35 0 -71 -15
q122 109 198 138q37 15 77 15q109 0 109 -139v-67l-1 -373q0 -143 53 -210q58 -76 193 -76q66 0 137 57q18 14 32 24v528q0 74 -36 102q-15 11 -37 11t-45 -10zM1043 1241q-13 -2 -41.5 -27t-48.5 -42.5t-39 -32.5q-44 -35 -65 -35h-722q10 1 64.5 48t83 68t46.5 21h722z
" />
    <glyph glyph-name="Ubreve" unicode="&#x16c;" horiz-adv-x="1724" 
d="M1728 1440q-21 -6 -46 -28t-52 -46q-68 -62 -97 -62h-74v-915q0 -110 -45 -199q-15 -31 -36 -53h330q-24 -7 -73.5 -52.5t-75 -64.5t-46.5 -19h-328q60 84 69.5 131t10.5 83q-159 -115 -258 -159q-186 -83 -328 -83t-227 35t-136 100q-97 122 -97 366v830h-169
q12 9 39 31.5t58 46.5q77 58 97 58h417q-24 -7 -73.5 -52.5t-75 -64.5t-46.5 -19h-53v-773q0 -204 124 -315q119 -105 326 -105q141 0 315 87q50 25 87 53v1053h-188q12 9 39.5 31.5t58.5 46.5q77 58 97 58h456zM1246 1891q-3 -129 -166 -256q-97 -76 -173.5 -100
t-121.5 -24t-87 15t-78 41q-83 60 -138 179q-4 7 -4 12t14 17.5t35.5 26.5t46.5 28.5t46 27.5q51 29 52 33q66 -159 184 -223q43 -24 79.5 -24t55.5 14t31 32q22 32 27 55.5t32.5 42.5t61.5 38.5t64.5 36.5t38.5 28z" />
    <glyph glyph-name="ubreve" unicode="&#x16d;" horiz-adv-x="1170" 
d="M670 828q161 145 236 145t75 -96v-635q0 -60 27 -90t90 -30q44 0 86 16q-33 -12 -59.5 -37.5t-56.5 -51.5q-75 -65 -171 -65q-92 0 -105 102q-3 29 -4 59q-218 -165 -387 -165q-114 0 -172 100q-52 90 -52 246v337q0 87 -15 118q-28 62 -101 62q-35 0 -71 -15
q122 109 198 138q37 15 77 15q109 0 109 -139v-67l-1 -373q0 -143 53 -210q58 -76 193 -76q66 0 137 57q18 14 32 24v528q0 74 -36 102q-15 11 -37 11t-45 -10zM969 1417q-3 -129 -166 -256q-97 -76 -173.5 -100t-121.5 -24t-87 15t-78 41q-83 60 -138 179q-4 7 -4 12
t14 17.5t35.5 26.5t46.5 28.5t46 27.5q51 29 52 33q66 -159 184 -223q43 -24 79.5 -24t55.5 14t31 32q22 32 27 55.5t32.5 42.5t61.5 38.5t64.5 36.5t38.5 28z" />
    <glyph glyph-name="Uring" unicode="&#x16e;" horiz-adv-x="1724" 
d="M1728 1440q-21 -6 -46 -28t-52 -46q-68 -62 -97 -62h-74v-915q0 -110 -45 -199q-15 -31 -36 -53h330q-24 -7 -73.5 -52.5t-75 -64.5t-46.5 -19h-328q60 84 69.5 131t10.5 83q-159 -115 -258 -159q-186 -83 -328 -83t-227 35t-136 100q-97 122 -97 366v830h-169
q12 9 39 31.5t58 46.5q77 58 97 58h417q-24 -7 -73.5 -52.5t-75 -64.5t-46.5 -19h-53v-773q0 -204 124 -315q119 -105 326 -105q141 0 315 87q50 25 87 53v1053h-188q12 9 39.5 31.5t58.5 46.5q77 58 97 58h456zM1150 1928.5q17 -37.5 17 -77t-19 -79t-51 -77t-73.5 -71
t-85.5 -58.5q-96 -56 -153.5 -56t-95.5 13.5t-68 38.5q-64 53 -64 139q0 114 142 235q83 70 151 94t108.5 24t78.5 -16t67 -44t46 -65.5zM959 1641q13 35 13 71t-12.5 69.5t-34.5 61.5q-58 76 -148 76q-22 0 -24 -25q-2 -14 -2 -48t15.5 -73t42.5 -68q59 -62 150 -64z" />
    <glyph glyph-name="uring" unicode="&#x16f;" horiz-adv-x="1170" 
d="M670 828q161 145 236 145t75 -96v-635q0 -60 27 -90t90 -30q44 0 86 16q-33 -12 -59.5 -37.5t-56.5 -51.5q-75 -65 -171 -65q-92 0 -105 102q-3 29 -4 59q-218 -165 -387 -165q-114 0 -172 100q-52 90 -52 246v337q0 87 -15 118q-28 62 -101 62q-35 0 -71 -15
q122 109 198 138q37 15 77 15q109 0 109 -139v-67l-1 -373q0 -143 53 -210q58 -76 193 -76q66 0 137 57q18 14 32 24v528q0 74 -36 102q-15 11 -37 11t-45 -10zM873 1455.5q17 -37.5 17 -77t-19 -79t-51 -77t-73.5 -71t-85.5 -58.5q-96 -56 -153.5 -56t-95.5 13.5t-68 38.5
q-64 53 -64 139q0 114 142 235q83 70 151 94t108.5 24t78.5 -16t67 -44t46 -65.5zM682 1168q13 35 13 71t-12.5 69.5t-34.5 61.5q-58 76 -148 76q-22 0 -24 -25q-2 -14 -2 -48t15.5 -73t42.5 -68q59 -62 150 -64z" />
    <glyph glyph-name="Uhungarumlaut" unicode="&#x170;" horiz-adv-x="1724" 
d="M1728 1440q-21 -6 -46 -28t-52 -46q-68 -62 -97 -62h-74v-915q0 -110 -45 -199q-15 -31 -36 -53h330q-24 -7 -73.5 -52.5t-75 -64.5t-46.5 -19h-328q60 84 69.5 131t10.5 83q-159 -115 -258 -159q-186 -83 -328 -83t-227 35t-136 100q-97 122 -97 366v830h-169
q12 9 39 31.5t58 46.5q77 58 97 58h417q-24 -7 -73.5 -52.5t-75 -64.5t-46.5 -19h-53v-773q0 -204 124 -315q119 -105 326 -105q141 0 315 87q50 25 87 53v1053h-188q12 9 39.5 31.5t58.5 46.5q77 58 97 58h456zM984 1502v12q79 52 137 119q70 81 155 196q1 2 57 43t62 45.5
t19 11.5t25 14t26 15q-27 -35 -56.5 -75.5t-77.5 -93.5q-105 -116 -201.5 -188t-145.5 -99zM714 1502v12q79 52 137 119q70 81 155 196q1 2 57 43t62 45.5t19 11.5t25 14t26 15q-27 -35 -56.5 -75.5t-77.5 -93.5q-105 -116 -201.5 -188t-145.5 -99z" />
    <glyph glyph-name="uhungarumlaut" unicode="&#x171;" horiz-adv-x="1170" 
d="M670 828q161 145 236 145t75 -96v-635q0 -60 27 -90t90 -30q44 0 86 16q-33 -12 -59.5 -37.5t-56.5 -51.5q-75 -65 -171 -65q-92 0 -105 102q-3 29 -4 59q-218 -165 -387 -165q-114 0 -172 100q-52 90 -52 246v337q0 87 -15 118q-28 62 -101 62q-35 0 -71 -15
q122 109 198 138q37 15 77 15q109 0 109 -139v-67l-1 -373q0 -143 53 -210q58 -76 193 -76q66 0 137 57q18 14 32 24v528q0 74 -36 102q-15 11 -37 11t-45 -10zM644 1050v12q79 52 137 119q70 81 155 196q1 2 57 43t62 45.5t19 11.5t25 14t26 15q-27 -35 -56.5 -75.5
t-77.5 -93.5q-105 -116 -201.5 -188t-145.5 -99zM374 1050v12q79 52 137 119q70 81 155 196q1 2 57 43t62 45.5t19 11.5t25 14t26 15q-27 -35 -56.5 -75.5t-77.5 -93.5q-105 -116 -201.5 -188t-145.5 -99z" />
    <glyph glyph-name="Uogonek" unicode="&#x172;" horiz-adv-x="1724" 
d="M1429 1q-62 -81 -62 -156q0 -70 53 -125q53 -54 125 -54q50 0 140 57q22 14 43 24v-1q0 -20 -194 -144q-114 -73 -187 -73q-67 0 -119 56q-50 54 -50 111.5t15.5 99.5t42.5 79q53 73 136 126h-187q60 84 69.5 131t10.5 83q-159 -115 -258 -159q-186 -83 -328 -83t-227 35
t-136 100q-97 122 -97 366v830h-169q12 9 39 31.5t58 46.5q77 58 97 58h417q-24 -7 -73.5 -52.5t-75 -64.5t-46.5 -19h-53v-773q0 -204 124 -315q119 -105 326 -105q141 0 315 87q50 25 87 53v1053h-188q12 9 39.5 31.5t58.5 46.5q77 58 97 58h456q-21 -6 -46 -28t-52 -46
q-68 -62 -97 -62h-74v-915q0 -110 -45 -199q-15 -31 -36 -53h330q-24 -7 -73.5 -52.5t-75 -64.5t-46.5 -19h-84z" />
    <glyph glyph-name="uogonek" unicode="&#x173;" horiz-adv-x="1170" 
d="M874 -14q-51 -71 -51 -141t53 -125q53 -54 125 -54q50 0 140 57q22 14 43 24v-1q0 -20 -194 -144q-114 -73 -187 -73q-67 0 -119 56q-50 54 -50 111.5t16 100t43 79.5q52 73 139 127q-36 26 -42 100l-2 42q-218 -165 -387 -165q-114 0 -172 100q-52 90 -52 246v337
q0 87 -15 118q-28 62 -101 62q-35 0 -71 -15q122 109 198 138q37 15 77 15q109 0 109 -139v-67l-1 -373q0 -143 53 -210q58 -76 193 -76q66 0 137 57q18 14 32 24v528q0 74 -36 102q-15 11 -37 11t-45 -10q161 145 236 145t75 -96v-635q0 -60 27 -90t90 -30q44 0 86 16
q-33 -12 -59.5 -37.5t-56.5 -51.5q-75 -65 -171 -65q-13 0 -23 2z" />
    <glyph glyph-name="Wcircumflex" unicode="&#x174;" horiz-adv-x="2166" 
d="M927 1302q37 25 190 137q147 -105 404 -1061q18 -67 28 -107q19 46 52 116.5t71.5 153.5t78 172t71.5 171q72 183 72 257q0 116 -74 167q-25 17 -52 17q-44 0 -80 -17q33 17 62.5 42.5t59.5 49.5q74 59 137 59q64 0 105 -51q39 -46 39 -113q0 -120 -299 -781
q-102 -226 -115 -259t-26 -63q-31 -70 -46 -91t-41.5 -40t-58.5 -40.5t-62 -41t-42 -28.5q-30 118 -59.5 236t-61.5 235q-67 249 -145 462q-70 -190 -174 -418t-127.5 -283t-52.5 -96q-12 -16 -97 -71.5t-97 -64.5q-11 46 -29 128.5t-42 187.5t-54 223t-66 235t-77 224
t-87 189q-100 179 -201 179q-51 0 -108 -33q97 101 233 154q45 18 78 18q87 0 162 -120q66 -108 111 -237.5t72 -218t51 -177t44 -169.5q30 -116 64 -265q23 53 52.5 118t60 135.5t59.5 144.5t52 146q50 162 50 263q0 146 -85 226zM1414 1636q-171 -137 -190 -137
q-7 0 -101.5 103.5t-98.5 108.5l-83 -79q-11 -10 -27 -18.5t-39 -23.5q-93 -58 -123 -86l250 237q34 34 94 75q85 58 90 58t21 -16t39 -41t50.5 -54.5t52 -55.5t42.5 -46t23 -25z" />
    <glyph glyph-name="wcircumflex" unicode="&#x175;" horiz-adv-x="1532" 
d="M638 850q7 5 22.5 17.5t35 27.5t40.5 31.5t40 29.5q43 31 52.5 31t23.5 -22t27.5 -50.5t24 -55t41.5 -104.5q80 -200 161 -526q116 213 142.5 302t26.5 124.5t-4.5 65t-14.5 55.5q-26 63 -76 63q-24 0 -47 -13q26 13 55 38t59 49q75 60 111 60t55.5 -14t32.5 -35
q24 -41 24 -108t-26.5 -152.5t-67.5 -169.5q-50 -105 -121 -218.5t-85 -137.5t-24.5 -37.5t-23.5 -24t-32 -23.5t-41 -28t-42.5 -28.5t-37 -24.5t-24.5 -16q-81 342 -146 531q-41 -103 -93 -206.5t-65 -133t-23 -44.5t-23 -25t-32 -23.5t-41.5 -29t-43.5 -29.5
q-43 -27 -61 -40q-7 30 -18 83.5t-27 121.5t-35.5 145t-43.5 152.5t-51 145t-58 122.5q-66 116 -132 116q-31 0 -61 -20q92 96 197 141q38 16 62 16q35 0 59.5 -20.5t51.5 -68.5t52.5 -112t49.5 -136.5t44 -141.5q28 -97 60 -221q19 45 41 97t41 106q44 127 44 218t-55 150z
M1131 1176q-171 -137 -190 -137q-7 0 -101.5 103.5t-98.5 108.5l-83 -79q-11 -10 -27 -18.5t-39 -23.5q-93 -58 -123 -86l250 237q34 34 94 75q85 58 90 58t21 -16t39 -41t50.5 -54.5t52 -55.5t42.5 -46t23 -25z" />
    <glyph glyph-name="Ycircumflex" unicode="&#x176;" horiz-adv-x="1257" 
d="M748 354q0 -116 -70 -219h321q-13 -2 -66 -48q-101 -87 -128 -87h-349q100 104 100 257v253q0 97 -114 333q-119 245 -248 385q-96 105 -168 105q-47 0 -122 -49q157 175 309 175q85 0 151 -77q147 -173 280 -452q62 -132 91 -234q190 248 241 411q13 42 13 73.5t-8 58.5
t-25 47q-35 42 -97 42q-30 0 -54 -7q22 6 46.5 29.5t52.5 48.5q75 65 139.5 65t101.5 -35.5t37 -90t-24.5 -115.5t-63 -127.5t-87 -135t-96.5 -131.5t-91.5 -116.5t-71.5 -89.5v-269zM997 1620q-171 -137 -190 -137q-7 0 -101.5 103.5t-98.5 108.5l-83 -79
q-11 -10 -27 -18.5t-39 -23.5q-93 -58 -123 -86l250 237q34 34 94 75q85 58 90 58t21 -16t39 -41t50.5 -54.5t52 -55.5t42.5 -46t23 -25z" />
    <glyph glyph-name="ycircumflex" unicode="&#x177;" horiz-adv-x="1138" 
d="M792 712q0 128 -72 128q-24 0 -46 -10q113 97 161 120.5t81 23.5t52 -23t19 -59v-590q0 -335 -165 -604q-115 -187 -304 -266q-95 -40 -211 -40q-99 0 -156 44q-21 17 -21 36.5t13 36t33 33t45 32.5t49 30q60 37 77 51q-25 -20 -25 -43.5t23 -40t53 -26.5
q58 -19 120.5 -19t111 32.5t79.5 86t47.5 121t23.5 136.5q8 74 12 250q-223 -170 -387 -170q-114 0 -172 74q-52 67 -52 184v402q0 202 -116 202q-37 0 -71 -14q120 107 198 138q37 14 75.5 14t60.5 -14.5t33 -37.5q17 -37 17 -112l-1 -414q0 -142 51 -209q60 -77 195 -77
q49 0 95.5 27t73.5 67v500zM925 1185q-171 -137 -190 -137q-7 0 -101.5 103.5t-98.5 108.5l-83 -79q-11 -10 -27 -18.5t-39 -23.5q-93 -58 -123 -86l250 237q34 34 94 75q85 58 90 58t21 -16t39 -41t50.5 -54.5t52 -55.5t42.5 -46t23 -25z" />
    <glyph glyph-name="Ydieresis" unicode="&#x178;" horiz-adv-x="1257" 
d="M748 354q0 -116 -70 -219h321q-13 -2 -66 -48q-101 -87 -128 -87h-349q100 104 100 257v253q0 97 -114 333q-119 245 -248 385q-96 105 -168 105q-47 0 -122 -49q157 175 309 175q85 0 151 -77q147 -173 280 -452q62 -132 91 -234q190 248 241 411q13 42 13 73.5t-8 58.5
t-25 47q-35 42 -97 42q-30 0 -54 -7q22 6 46.5 29.5t52.5 48.5q75 65 139.5 65t101.5 -35.5t37 -90t-24.5 -115.5t-63 -127.5t-87 -135t-96.5 -131.5t-91.5 -116.5t-71.5 -89.5v-269zM1048 1641l-194 -137l-152 142l195 136zM592 1641l-194 -137l-152 142l194 136z" />
    <glyph glyph-name="Zacute" unicode="&#x179;" horiz-adv-x="1247" 
d="M543 149l484 -14q75 0 192 52q-101 -125 -248 -171q-49 -16 -96 -16h-875q192 164 481 626q41 66 70 112t57.5 94t60.5 100.5t66.5 106.5t68.5 103q75 110 129 160q-70 -8 -175 -8l-483 16q-106 0 -178 -8q14 11 40.5 32.5t55.5 43.5q72 55 107 61.5t80 6.5h89l483 -16
q105 0 177 8q-71 -64 -194 -263q-65 -101 -127.5 -201.5t-121.5 -194t-113.5 -180.5t-114.5 -170q-135 -187 -273 -304q178 24 358 24zM577 1489v12q79 52 137 119q70 81 155 196q1 2 57 43t62 45.5t19 11.5t25 14t26 15q-27 -35 -56.5 -75.5t-77.5 -93.5
q-105 -116 -201.5 -188t-145.5 -99z" />
    <glyph glyph-name="zacute" unicode="&#x17a;" horiz-adv-x="910" 
d="M555 136l153 -5q84 0 178 42q-37 -28 -68 -52q-67 -52 -112 -78q-75 -45 -200 -45t-249 1t-249 1q64 43 86 65.5t37.5 43.5t31 44.5t29.5 46.5t43.5 71t76.5 130t98 162q117 187 231 292q-48 -3 -97 -3l-349 10q-68 0 -137 -6q13 10 40 32t57 44q75 57 103 61q35 5 132 5
l348 -10q60 0 118 4q-81 -50 -142 -132q-87 -114 -185 -283t-118 -201t-40.5 -64.5t-42.5 -63.5q-48 -66 -103 -112h330zM430 1076v12q79 52 137 119q70 81 155 196q1 2 57 43t62 45.5t19 11.5t25 14t26 15q-27 -35 -56.5 -75.5t-77.5 -93.5q-105 -116 -201.5 -188
t-145.5 -99z" />
    <glyph glyph-name="Zdotaccent" unicode="&#x17b;" horiz-adv-x="1247" 
d="M543 149l484 -14q75 0 192 52q-101 -125 -248 -171q-49 -16 -96 -16h-875q192 164 481 626q41 66 70 112t57.5 94t60.5 100.5t66.5 106.5t68.5 103q75 110 129 160q-70 -8 -175 -8l-483 16q-106 0 -178 -8q14 11 40.5 32.5t55.5 43.5q72 55 107 61.5t80 6.5h89l483 -16
q105 0 177 8q-71 -64 -194 -263q-65 -101 -127.5 -201.5t-121.5 -194t-113.5 -180.5t-114.5 -170q-135 -187 -273 -304q178 24 358 24zM796 1661l-194 -137l-152 142l194 136z" />
    <glyph glyph-name="zdotaccent" unicode="&#x17c;" horiz-adv-x="910" 
d="M555 136l153 -5q84 0 178 42q-37 -28 -68 -52q-67 -52 -112 -78q-75 -45 -200 -45t-249 1t-249 1q64 43 86 65.5t37.5 43.5t31 44.5t29.5 46.5t43.5 71t76.5 130t98 162q117 187 231 292q-48 -3 -97 -3l-349 10q-68 0 -137 -6q13 10 40 32t57 44q75 57 103 61q35 5 132 5
l348 -10q60 0 118 4q-81 -50 -142 -132q-87 -114 -185 -283t-118 -201t-40.5 -64.5t-42.5 -63.5q-48 -66 -103 -112h330zM628 1193l-194 -137l-152 142l194 136z" />
    <glyph glyph-name="Zcaron" unicode="&#x17d;" horiz-adv-x="1247" 
d="M543 149l484 -14q75 0 192 52q-101 -125 -248 -171q-49 -16 -96 -16h-875q192 164 481 626q41 66 70 112t57.5 94t60.5 100.5t66.5 106.5t68.5 103q75 110 129 160q-70 -8 -175 -8l-483 16q-106 0 -178 -8q14 11 40.5 32.5t55.5 43.5q72 55 107 61.5t80 6.5h89l483 -16
q105 0 177 8q-71 -64 -194 -263q-65 -101 -127.5 -201.5t-121.5 -194t-113.5 -180.5t-114.5 -170q-135 -187 -273 -304q178 24 358 24zM328 1784q171 137 190 137q7 0 101.5 -103.5t98.5 -108.5l83 79q11 10 27 18.5t39 22.5q93 59 123 88l-250 -238q-104 -87 -143.5 -110
t-42.5 -23t-19 16t-39 41t-50.5 54.5t-52 56t-42.5 46t-23 24.5z" />
    <glyph glyph-name="zcaron" unicode="&#x17e;" horiz-adv-x="910" 
d="M555 136l153 -5q84 0 178 42q-37 -28 -68 -52q-67 -52 -112 -78q-75 -45 -200 -45t-249 1t-249 1q64 43 86 65.5t37.5 43.5t31 44.5t29.5 46.5t43.5 71t76.5 130t98 162q117 187 231 292q-48 -3 -97 -3l-349 10q-68 0 -137 -6q13 10 40 32t57 44q75 57 103 61q35 5 132 5
l348 -10q60 0 118 4q-81 -50 -142 -132q-87 -114 -185 -283t-118 -201t-40.5 -64.5t-42.5 -63.5q-48 -66 -103 -112h330zM166 1339q171 137 190 137q7 0 101.5 -103.5t98.5 -108.5l83 79q11 10 27 18.5t39 22.5q93 59 123 88l-250 -238q-104 -87 -143.5 -110t-42.5 -23
t-19 16t-39 41t-50.5 54.5t-52 56t-42.5 46t-23 24.5z" />
    <glyph glyph-name="AEacute" unicode="&#x1fc;" horiz-adv-x="1862" 
d="M164 135q7 1 80 1q125 0 184.5 19t85.5 35q-37 -28 -68 -52q-67 -52 -107.5 -75t-80.5 -35.5t-82 -18.5q-62 -9 -169 -9h-39q1 1 1.5 2t14 16t39.5 43.5t69 85.5t93.5 147t94 183.5t83.5 189.5t82.5 192.5t86.5 195t66.5 154.5t26 70t11.5 24h-76q-186 0 -289 -42
q138 120 231 151q85 27 276 27h878q-13 -1 -66.5 -47.5t-81.5 -67.5t-46 -21h-591l72 -242t73 -243h476q-11 -1 -28 -22.5t-36 -46.5q-53 -67 -80 -67h-290q119 -392 141 -434t40 -63q42 -49 101 -49h365q57 0 162 44l19 8q-51 -61 -218 -150q-72 -38 -98 -38h-364
q-154 0 -197 114q-42 118 -78.5 235.5t-74.5 236.5q-85 -60 -365 -56h-63q-113 -226 -220 -345q-9 -10 -18 -21q-26 -30 -26 -29zM506 669l198 -4q62 0 126 4q-46 146 -137 447q-99 -227 -201 -450q12 3 14 3zM691 1544v12q79 52 137 119q70 81 155 196q1 2 57 43t62 45.5
t19 11.5t25 14t26 15q-27 -35 -56.5 -75.5t-77.5 -93.5q-105 -116 -201.5 -188t-145.5 -99z" />
    <glyph glyph-name="aeacute" unicode="&#x1fd;" horiz-adv-x="1361" 
d="M532 1001q192 0 218 -208q118 125 250 171q49 16 89 16t65.5 -12t43.5 -32q39 -43 39 -98t-24 -101.5t-62.5 -90.5t-88 -84.5t-100.5 -75.5q-74 -50 -185 -113q32 -121 113.5 -186.5t208.5 -65.5q117 0 222 64q-118 -140 -317 -185q-62 -14 -121 -14q-175 0 -262 163
q-47 -29 -92 -58t-93 -53q-108 -53 -206 -53q-128 0 -176 78q-18 28 -18 76t30 98t76 91q140 128 306 156q55 9 113 11v44q0 159 -29 215t-75 82.5t-108 26.5q-105 0 -185 -41q102 87 158 118q110 61 210 61zM1019 586.5q27 42.5 27 83t-9 69t-27 51.5q-39 50 -100 50
q-152 0 -152 -310q0 -55 9 -109q104 28 164.5 75.5t87.5 90zM561 231v128h-159q-98 0 -155 -12q-13 -43 -13 -82t13.5 -67t37.5 -46q46 -33 125 -33q51 0 86 22q65 41 65 90zM709 1063v12q79 52 137 119q70 81 155 196q1 2 57 43t62 45.5t19 11.5t25 14t26 15
q-27 -35 -56.5 -75.5t-77.5 -93.5q-105 -116 -201.5 -188t-145.5 -99z" />
    <glyph glyph-name="Oslashacute" unicode="&#x1fe;" horiz-adv-x="1756" 
d="M1339 1624q-45 -136 -68 -195q181 -75 289 -226q113 -159 113 -359q0 -221 -131 -440q-128 -214 -332 -346q-214 -139 -437 -139q-125 0 -230 30q-26 -22 -68 -45q-81 -43 -101 -64q45 72 82 139q-265 113 -342 410q-25 97 -25 214t34.5 230t96 211t146.5 179t186 139
q211 121 449 121q63 0 137 -13q14 36 41 54.5t57 34.5q84 46 103 65zM650 114q140 -63 299.5 -63t255.5 48.5t157 131.5q116 158 116 428q0 193 -74 339.5t-208 234.5q-231 -575 -446 -947q-24 -41 -50 -86t-50 -86zM1071 1296q-124 47 -271 47t-245 -40.5t-158 -115.5
q-113 -141 -113 -423q0 -202 70.5 -355.5t205.5 -244.5q252 457 465 1012q24 63 46 120zM718 1507v12q79 52 137 119q70 81 155 196q1 2 57 43t62 45.5t19 11.5t25 14t26 15q-27 -35 -56.5 -75.5t-77.5 -93.5q-105 -116 -201.5 -188t-145.5 -99z" />
    <glyph glyph-name="oslashacute" unicode="&#x1ff;" 
d="M930 1126q-36 -97 -79 -199q81 -56 131 -153q48 -92 48 -180t-22 -159t-61.5 -137t-93 -123.5t-117.5 -100.5q-136 -91 -275 -91q-76 0 -143 30q-24 -18 -67 -38q-80 -37 -105 -61q81 122 95 144q-120 89 -157 241q-11 48 -11 108t22.5 132t62 138t94 123.5t118.5 99.5
q137 91 277 91q36 0 76 -8q8 37 90 79q33 17 66 32.5t51 31.5zM443 187q93 -71 211 -71q102 0 148 102q33 76 33 172q0 183 -91 310q-118 -230 -301 -513zM367 264q152 261 277 534q-90 59 -195 59q-98 0 -145 -97q-37 -75 -37 -171q0 -191 100 -325zM387 974v12
q79 52 137 119q70 81 155 196q1 2 57 43t62 45.5t19 11.5t25 14t26 15q-27 -35 -56.5 -75.5t-77.5 -93.5q-105 -116 -201.5 -188t-145.5 -99z" />
    <glyph glyph-name="dotlessj" unicode="&#x237;" horiz-adv-x="542" 
d="M60 -375q-23 -18 -23 -43.5t19 -37.5t40 -11h2q80 134 88 364q3 64 3 125v582q0 112 -36 148q-17 17 -44 17q-35 0 -94 -14q122 96 368 251v-810q0 -218 -19.5 -301.5t-48.5 -151.5t-70 -130.5t-93 -110.5q-112 -105 -244 -105q-64 0 -64 48q0 31 32.5 57t57 42t48.5 30
q62 36 78 51z" />
    <glyph glyph-name="circumflex" unicode="&#x2c6;" horiz-adv-x="662" 
d="M662 1390q-171 -137 -190 -137q-7 0 -101.5 103.5t-98.5 108.5l-83 -79q-11 -10 -27 -18.5t-39 -23.5q-93 -58 -123 -86l250 237q34 34 94 75q85 58 90 58t21 -16t39 -41t50.5 -54.5t52 -55.5t42.5 -46t23 -25z" />
    <glyph glyph-name="caron" unicode="&#x2c7;" horiz-adv-x="662" 
d="M0 1491q171 137 190 137q7 0 101.5 -103.5t98.5 -108.5l83 79q11 10 27 18.5t39 22.5q93 59 123 88l-250 -238q-104 -87 -143.5 -110t-42.5 -23t-19 16t-39 41t-50.5 54.5t-52 56t-42.5 46t-23 24.5z" />
    <glyph glyph-name="breve" unicode="&#x2d8;" horiz-adv-x="768" 
d="M768 1627q-3 -129 -166 -256q-97 -76 -173.5 -100t-121.5 -24t-87 15t-78 41q-83 60 -138 179q-4 7 -4 12t14 17.5t35.5 26.5t46.5 28.5t46 27.5q51 29 52 33q66 -159 184 -223q43 -24 79.5 -24t55.5 14t31 32q22 32 27 55.5t32.5 42.5t61.5 38.5t64.5 36.5t38.5 28z" />
    <glyph glyph-name="dotaccent" unicode="&#x2d9;" horiz-adv-x="346" 
d="M346 1381l-194 -137l-152 142l194 136z" />
    <glyph glyph-name="ring" unicode="&#x2da;" horiz-adv-x="610" 
d="M593 1588.5q17 -37.5 17 -77t-19 -79t-51 -77t-73.5 -71t-85.5 -58.5q-96 -56 -153.5 -56t-95.5 13.5t-68 38.5q-64 53 -64 139q0 114 142 235q83 70 151 94t108.5 24t78.5 -16t67 -44t46 -65.5zM402 1301q13 35 13 71t-12.5 69.5t-34.5 61.5q-58 76 -148 76
q-22 0 -24 -25q-2 -14 -2 -48t15.5 -73t42.5 -68q59 -62 150 -64z" />
    <glyph glyph-name="ogonek" unicode="&#x2db;" horiz-adv-x="550" 
d="M298 54q-109 -109 -109 -209q0 -70 53 -125q53 -54 125 -54q50 0 140 57q22 14 43 24v-1q0 -20 -194 -144q-114 -73 -187 -73q-67 0 -119 56q-50 54 -50 118.5t27 118.5t70 99q84 88 201 133z" />
    <glyph glyph-name="tilde" unicode="&#x2dc;" horiz-adv-x="925" 
d="M925 1503q-208 -239 -406 -239q-61 0 -96.5 23t-53.5 38.5t-39 29.5q-46 32 -105 32q-60 0 -225 -129q140 203 328 254q43 11 87 11t75.5 -19.5t63.5 -42.5q86 -62 166 -62q57 0 156 73q25 18 49 31z" />
    <glyph glyph-name="hungarumlaut" unicode="&#x2dd;" horiz-adv-x="752" 
d="M272 1247v12q79 52 137 119q70 81 155 196q1 2 57 43t62 45.5t19 11.5t25 14t26 15q-27 -35 -56.5 -75.5t-77.5 -93.5q-105 -116 -201.5 -188t-145.5 -99zM2 1247v12q79 52 137 119q70 81 155 196q1 2 57 43t62 45.5t19 11.5t25 14t26 15q-27 -35 -56.5 -75.5
t-77.5 -93.5q-105 -116 -201.5 -188t-145.5 -99z" />
    <glyph glyph-name="uni0312" unicode="&#x312;" horiz-adv-x="359" 
d="M231 1681q-81 -81 -81 -170q0 -32 16 -47q18 -15 60 14q3 3 4 3l84 -133q4 -7 -46 -40t-68 -44q-42 -28 -42 -25q-21 34 -45 67.5t-38 87t9 119.5q33 98 112 145q28 16 35 23z" />
    <glyph glyph-name="uni0315" unicode="&#x315;" horiz-adv-x="245" 
d="M83 1229q82 82 82 170q0 32 -17 46q-15 13 -59 -15q-4 -2 -4 -1l-84 134q-3 7 64 51q90 59 92 57q21 -34 45 -68t38 -86.5t-8.5 -119t-72.5 -117.5q-9 -9 -30 -22q-37 -21 -46 -29z" />
    <glyph glyph-name="uni0326" unicode="&#x326;" horiz-adv-x="386" 
d="M150 -547q82 82 82 169q0 33 -16 47q-16 13 -60 -15q-4 -2 -4 -1l-84 133q-2 2 9 11t28 21.5t38 26t39 25.5q41 26 42 25q21 -34 44.5 -68t37.5 -86.5t-8 -119.5t-72 -117q-9 -9 -30 -22q-37 -21 -46 -29z" />
    <glyph glyph-name="pi" unicode="&#x3c0;" horiz-adv-x="1101" 
d="M1094 953q-12 0 -61 -43t-69 -58q-45 -35 -65 -35h-103v-537q0 -95 12 -119q22 -48 104 -48q44 0 85 15q-33 -12 -59 -37t-56 -51q-75 -65 -168 -65q-96 0 -108 121q-4 33 -4 68v653h-143v-721q0 -18 -59.5 -53t-81.5 -48q-51 -30 -53 -35v857h-268l39 31
q127 105 155 105h903z" />
    <glyph glyph-name="Wgrave" unicode="&#x1e80;" horiz-adv-x="2166" 
d="M927 1302q37 25 190 137q147 -105 404 -1061q18 -67 28 -107q19 46 52 116.5t71.5 153.5t78 172t71.5 171q72 183 72 257q0 116 -74 167q-25 17 -52 17q-44 0 -80 -17q33 17 62.5 42.5t59.5 49.5q74 59 137 59q64 0 105 -51q39 -46 39 -113q0 -120 -299 -781
q-102 -226 -115 -259t-26 -63q-31 -70 -46 -91t-41.5 -40t-58.5 -40.5t-62 -41t-42 -28.5q-30 118 -59.5 236t-61.5 235q-67 249 -145 462q-70 -190 -174 -418t-127.5 -283t-52.5 -96q-12 -16 -97 -71.5t-97 -64.5q-11 46 -29 128.5t-42 187.5t-54 223t-66 235t-77 224
t-87 189q-100 179 -201 179q-51 0 -108 -33q97 101 233 154q45 18 78 18q87 0 162 -120q66 -108 111 -237.5t72 -218t51 -177t44 -169.5q30 -116 64 -265q23 53 52.5 118t60 135.5t59.5 144.5t52 146q50 162 50 263q0 146 -85 226zM1191 1607q-11 -8 -38.5 -30t-58.5 -46
q-80 -60 -97 -60q-3 0 -16 9q-94 62 -155 131t-111 147l-18 29q0 11 79 65q106 71 113 71t8 -5t9 -19q60 -102 138 -177.5t147 -114.5z" />
    <glyph glyph-name="wgrave" unicode="&#x1e81;" horiz-adv-x="1532" 
d="M638 850q7 5 22.5 17.5t35 27.5t40.5 31.5t40 29.5q43 31 52.5 31t23.5 -22t27.5 -50.5t24 -55t41.5 -104.5q80 -200 161 -526q116 213 142.5 302t26.5 124.5t-4.5 65t-14.5 55.5q-26 63 -76 63q-24 0 -47 -13q26 13 55 38t59 49q75 60 111 60t55.5 -14t32.5 -35
q24 -41 24 -108t-26.5 -152.5t-67.5 -169.5q-50 -105 -121 -218.5t-85 -137.5t-24.5 -37.5t-23.5 -24t-32 -23.5t-41 -28t-42.5 -28.5t-37 -24.5t-24.5 -16q-81 342 -146 531q-41 -103 -93 -206.5t-65 -133t-23 -44.5t-23 -25t-32 -23.5t-41.5 -29t-43.5 -29.5
q-43 -27 -61 -40q-7 30 -18 83.5t-27 121.5t-35.5 145t-43.5 152.5t-51 145t-58 122.5q-66 116 -132 116q-31 0 -61 -20q92 96 197 141q38 16 62 16q35 0 59.5 -20.5t51.5 -68.5t52.5 -112t49.5 -136.5t44 -141.5q28 -97 60 -221q19 45 41 97t41 106q44 127 44 218t-55 150z
M903 1155q-11 -8 -38.5 -30t-58.5 -46q-80 -60 -97 -60q-3 0 -16 9q-94 62 -155 131t-111 147l-18 29q0 11 79 65q106 71 113 71t8 -5t9 -19q60 -102 138 -177.5t147 -114.5z" />
    <glyph glyph-name="Wacute" unicode="&#x1e82;" horiz-adv-x="2166" 
d="M927 1302q37 25 190 137q147 -105 404 -1061q18 -67 28 -107q19 46 52 116.5t71.5 153.5t78 172t71.5 171q72 183 72 257q0 116 -74 167q-25 17 -52 17q-44 0 -80 -17q33 17 62.5 42.5t59.5 49.5q74 59 137 59q64 0 105 -51q39 -46 39 -113q0 -120 -299 -781
q-102 -226 -115 -259t-26 -63q-31 -70 -46 -91t-41.5 -40t-58.5 -40.5t-62 -41t-42 -28.5q-30 118 -59.5 236t-61.5 235q-67 249 -145 462q-70 -190 -174 -418t-127.5 -283t-52.5 -96q-12 -16 -97 -71.5t-97 -64.5q-11 46 -29 128.5t-42 187.5t-54 223t-66 235t-77 224
t-87 189q-100 179 -201 179q-51 0 -108 -33q97 101 233 154q45 18 78 18q87 0 162 -120q66 -108 111 -237.5t72 -218t51 -177t44 -169.5q30 -116 64 -265q23 53 52.5 118t60 135.5t59.5 144.5t52 146q50 162 50 263q0 146 -85 226zM970 1469v12q79 52 137 119q70 81 155 196
q1 2 57 43t62 45.5t19 11.5t25 14t26 15q-27 -35 -56.5 -75.5t-77.5 -93.5q-105 -116 -201.5 -188t-145.5 -99z" />
    <glyph glyph-name="wacute" unicode="&#x1e83;" horiz-adv-x="1532" 
d="M638 850q7 5 22.5 17.5t35 27.5t40.5 31.5t40 29.5q43 31 52.5 31t23.5 -22t27.5 -50.5t24 -55t41.5 -104.5q80 -200 161 -526q116 213 142.5 302t26.5 124.5t-4.5 65t-14.5 55.5q-26 63 -76 63q-24 0 -47 -13q26 13 55 38t59 49q75 60 111 60t55.5 -14t32.5 -35
q24 -41 24 -108t-26.5 -152.5t-67.5 -169.5q-50 -105 -121 -218.5t-85 -137.5t-24.5 -37.5t-23.5 -24t-32 -23.5t-41 -28t-42.5 -28.5t-37 -24.5t-24.5 -16q-81 342 -146 531q-41 -103 -93 -206.5t-65 -133t-23 -44.5t-23 -25t-32 -23.5t-41.5 -29t-43.5 -29.5
q-43 -27 -61 -40q-7 30 -18 83.5t-27 121.5t-35.5 145t-43.5 152.5t-51 145t-58 122.5q-66 116 -132 116q-31 0 -61 -20q92 96 197 141q38 16 62 16q35 0 59.5 -20.5t51.5 -68.5t52.5 -112t49.5 -136.5t44 -141.5q28 -97 60 -221q19 45 41 97t41 106q44 127 44 218t-55 150z
M652 987v12q79 52 137 119q70 81 155 196q1 2 57 43t62 45.5t19 11.5t25 14t26 15q-27 -35 -56.5 -75.5t-77.5 -93.5q-105 -116 -201.5 -188t-145.5 -99z" />
    <glyph glyph-name="Wdieresis" unicode="&#x1e84;" horiz-adv-x="2166" 
d="M927 1302q37 25 190 137q147 -105 404 -1061q18 -67 28 -107q19 46 52 116.5t71.5 153.5t78 172t71.5 171q72 183 72 257q0 116 -74 167q-25 17 -52 17q-44 0 -80 -17q33 17 62.5 42.5t59.5 49.5q74 59 137 59q64 0 105 -51q39 -46 39 -113q0 -120 -299 -781
q-102 -226 -115 -259t-26 -63q-31 -70 -46 -91t-41.5 -40t-58.5 -40.5t-62 -41t-42 -28.5q-30 118 -59.5 236t-61.5 235q-67 249 -145 462q-70 -190 -174 -418t-127.5 -283t-52.5 -96q-12 -16 -97 -71.5t-97 -64.5q-11 46 -29 128.5t-42 187.5t-54 223t-66 235t-77 224
t-87 189q-100 179 -201 179q-51 0 -108 -33q97 101 233 154q45 18 78 18q87 0 162 -120q66 -108 111 -237.5t72 -218t51 -177t44 -169.5q30 -116 64 -265q23 53 52.5 118t60 135.5t59.5 144.5t52 146q50 162 50 263q0 146 -85 226zM1484 1611l-194 -137l-152 142l195 136z
M1028 1611l-194 -137l-152 142l194 136z" />
    <glyph glyph-name="wdieresis" unicode="&#x1e85;" horiz-adv-x="1532" 
d="M638 850q7 5 22.5 17.5t35 27.5t40.5 31.5t40 29.5q43 31 52.5 31t23.5 -22t27.5 -50.5t24 -55t41.5 -104.5q80 -200 161 -526q116 213 142.5 302t26.5 124.5t-4.5 65t-14.5 55.5q-26 63 -76 63q-24 0 -47 -13q26 13 55 38t59 49q75 60 111 60t55.5 -14t32.5 -35
q24 -41 24 -108t-26.5 -152.5t-67.5 -169.5q-50 -105 -121 -218.5t-85 -137.5t-24.5 -37.5t-23.5 -24t-32 -23.5t-41 -28t-42.5 -28.5t-37 -24.5t-24.5 -16q-81 342 -146 531q-41 -103 -93 -206.5t-65 -133t-23 -44.5t-23 -25t-32 -23.5t-41.5 -29t-43.5 -29.5
q-43 -27 -61 -40q-7 30 -18 83.5t-27 121.5t-35.5 145t-43.5 152.5t-51 145t-58 122.5q-66 116 -132 116q-31 0 -61 -20q92 96 197 141q38 16 62 16q35 0 59.5 -20.5t51.5 -68.5t52.5 -112t49.5 -136.5t44 -141.5q28 -97 60 -221q19 45 41 97t41 106q44 127 44 218t-55 150z
M1205 1154l-194 -137l-152 142l195 136zM749 1154l-194 -137l-152 142l194 136z" />
    <glyph glyph-name="Ygrave" unicode="&#x1ef2;" horiz-adv-x="1257" 
d="M748 354q0 -116 -70 -219h321q-13 -2 -66 -48q-101 -87 -128 -87h-349q100 104 100 257v253q0 97 -114 333q-119 245 -248 385q-96 105 -168 105q-47 0 -122 -49q157 175 309 175q85 0 151 -77q147 -173 280 -452q62 -132 91 -234q190 248 241 411q13 42 13 73.5t-8 58.5
t-25 47q-35 42 -97 42q-30 0 -54 -7q22 6 46.5 29.5t52.5 48.5q75 65 139.5 65t101.5 -35.5t37 -90t-24.5 -115.5t-63 -127.5t-87 -135t-96.5 -131.5t-91.5 -116.5t-71.5 -89.5v-269zM829 1624q-11 -8 -38.5 -30t-58.5 -46q-80 -60 -97 -60q-3 0 -16 9q-94 62 -155 131
t-111 147l-18 29q0 11 79 65q106 71 113 71t8 -5t9 -19q60 -102 138 -177.5t147 -114.5z" />
    <glyph glyph-name="ygrave" unicode="&#x1ef3;" horiz-adv-x="1138" 
d="M792 712q0 128 -72 128q-24 0 -46 -10q113 97 161 120.5t81 23.5t52 -23t19 -59v-590q0 -335 -165 -604q-115 -187 -304 -266q-95 -40 -211 -40q-99 0 -156 44q-21 17 -21 36.5t13 36t33 33t45 32.5t49 30q60 37 77 51q-25 -20 -25 -43.5t23 -40t53 -26.5
q58 -19 120.5 -19t111 32.5t79.5 86t47.5 121t23.5 136.5q8 74 12 250q-223 -170 -387 -170q-114 0 -172 74q-52 67 -52 184v402q0 202 -116 202q-37 0 -71 -14q120 107 198 138q37 14 75.5 14t60.5 -14.5t33 -37.5q17 -37 17 -112l-1 -414q0 -142 51 -209q60 -77 195 -77
q49 0 95.5 27t73.5 67v500zM749 1142q-11 -8 -38.5 -30t-58.5 -46q-80 -60 -97 -60q-3 0 -16 9q-94 62 -155 131t-111 147l-18 29q0 11 79 65q106 71 113 71t8 -5t9 -19q60 -102 138 -177.5t147 -114.5z" />
    <glyph glyph-name="endash" unicode="&#x2013;" horiz-adv-x="765" 
d="M638 615q-12 -1 -65.5 -47.5t-82 -67.5t-46.5 -21h-306q12 1 65.5 47.5t82 67.5t46.5 21h306z" />
    <glyph glyph-name="emdash" unicode="&#x2014;" horiz-adv-x="1065" 
d="M938 615q-12 -1 -65.5 -47.5t-82 -67.5t-46.5 -21h-606q12 1 65.5 47.5t82 67.5t46.5 21h606z" />
    <glyph glyph-name="quoteleft" unicode="&#x2018;" horiz-adv-x="449" 
d="M289 1473q-102 -104 -102 -213q0 -41 15.5 -53.5t27.5 -12.5t23 8q30 20 34 20l105 -166q3 -10 -80 -65q-112 -74 -115 -71q-13 21 -27.5 42t-27.5 42q-33 52 -44 92t-9 83t15 83q28 83 91 146q14 14 38 28q47 28 56 37z" />
    <glyph glyph-name="quoteright" unicode="&#x2019;" horiz-adv-x="449" 
d="M165 920q103 103 103 212q0 41 -15.5 53.5t-28 12.5t-23 -7.5t-17.5 -11.5q-16 -10 -16 -9l-105 167q-4 4 32 30t61.5 43t47.5 32q52 33 54 31q13 -21 27.5 -42.5t28.5 -42.5q32 -52 43 -92t9 -82.5t-16 -83.5q-28 -84 -90 -146q-18 -18 -53 -37.5t-42 -26.5z" />
    <glyph glyph-name="quotesinglbase" unicode="&#x201a;" horiz-adv-x="483" 
d="M187 -280q103 103 103 212q0 41 -15.5 53.5t-28 12.5t-23 -7.5t-17.5 -11.5q-16 -10 -16 -9l-105 167q-4 4 32 30t61.5 43t47.5 32q52 33 54 31q13 -21 27.5 -42.5t28.5 -42.5q32 -52 43 -92t9 -82.5t-16 -83.5q-28 -84 -90 -146q-18 -18 -53 -37.5t-42 -26.5z" />
    <glyph glyph-name="quotedblleft" unicode="&#x201c;" horiz-adv-x="809" 
d="M649 1473q-102 -104 -102 -213q0 -41 15.5 -53.5t27.5 -12.5t23 8q30 20 34 20l105 -166q3 -10 -80 -65q-112 -74 -115 -71q-13 21 -27.5 42t-27.5 42q-33 52 -44 92t-9 83t15 83q28 83 91 146q14 14 38 28q47 28 56 37zM289 1473q-102 -104 -102 -213q0 -41 15.5 -53.5
t27.5 -12.5t23 8q30 20 34 20l105 -166q3 -10 -80 -65q-112 -74 -115 -71q-13 21 -27.5 42t-27.5 42q-33 52 -44 92t-9 83t15 83q28 83 91 146q14 14 38 28q47 28 56 37z" />
    <glyph glyph-name="quotedblright" unicode="&#x201d;" horiz-adv-x="809" 
d="M525 920q103 103 103 212q0 41 -15.5 53.5t-28 12.5t-23 -7.5t-17.5 -11.5q-16 -10 -16 -9l-105 167q-4 4 32 30t61.5 43t47.5 32q52 33 54 31q13 -21 27.5 -42.5t28.5 -42.5q32 -52 43 -92t9 -82.5t-16 -83.5q-28 -84 -90 -146q-18 -18 -53 -37.5t-42 -26.5zM165 920
q103 103 103 212q0 41 -15.5 53.5t-28 12.5t-23 -7.5t-17.5 -11.5q-16 -10 -16 -9l-105 167q-4 4 32 30t61.5 43t47.5 32q52 33 54 31q13 -21 27.5 -42.5t28.5 -42.5q32 -52 43 -92t9 -82.5t-16 -83.5q-28 -84 -90 -146q-18 -18 -53 -37.5t-42 -26.5z" />
    <glyph glyph-name="quotedblbase" unicode="&#x201e;" horiz-adv-x="843" 
d="M547 -280q103 103 103 212q0 41 -15.5 53.5t-28 12.5t-23 -7.5t-17.5 -11.5q-16 -10 -16 -9l-105 167q-4 4 32 30t61.5 43t47.5 32q52 33 54 31q13 -21 27.5 -42.5t28.5 -42.5q32 -52 43 -92t9 -82.5t-16 -83.5q-28 -84 -90 -146q-18 -18 -53 -37.5t-42 -26.5zM187 -280
q103 103 103 212q0 41 -15.5 53.5t-28 12.5t-23 -7.5t-17.5 -11.5q-16 -10 -16 -9l-105 167q-4 4 32 30t61.5 43t47.5 32q52 33 54 31q13 -21 27.5 -42.5t28.5 -42.5q32 -52 43 -92t9 -82.5t-16 -83.5q-28 -84 -90 -146q-18 -18 -53 -37.5t-42 -26.5z" />
    <glyph glyph-name="dagger" unicode="&#x2020;" horiz-adv-x="956" 
d="M57 1011q166 136 194 136h141v417q77 64 104 79.5t44 25.5q42 24 47 31v-553h307q-13 -1 -66 -48q-101 -88 -128 -88h-113v-1187q0 -18 -95 -73.5t-100 -62.5v1323h-335z" />
    <glyph glyph-name="daggerdbl" unicode="&#x2021;" horiz-adv-x="969" 
d="M70 1011q166 136 194 136h141v417q77 64 104 79.5t45 25.5q41 24 46 31v-553h307q-13 -1 -66 -48q-101 -88 -128 -88h-113v-556h307q-13 -1 -66 -48q-101 -88 -128 -88h-113v-495q0 -18 -95 -73.5t-100 -62.5v631h-335q166 136 194 136h141v556h-335z" />
    <glyph glyph-name="bullet" unicode="&#x2022;" horiz-adv-x="792" 
d="M645 701l-323 -225l-173 275l322 226z" />
    <glyph glyph-name="ellipsis" unicode="&#x2026;" horiz-adv-x="1413" 
d="M383 106l-194 -136l-105 167l194 136zM854 106l-194 -136l-105 167l194 136zM1325 106l-194 -136l-105 167l194 136z" />
    <glyph glyph-name="perthousand" unicode="&#x2030;" horiz-adv-x="2841" 
d="M2772 523q0 -240 -226 -408q-29 -21 -61.5 -45t-67.5 -44q-153 -85 -283 -13q-116 63 -158 203q-19 67 -19 151q0 179 141 324q28 28 63 50.5t65 42.5t58 38.5t58 32.5q67 32 132.5 32t122 -32.5t95.5 -84.5q80 -105 80 -247zM1872 523q0 -240 -226 -408
q-29 -21 -61.5 -45t-67.5 -44q-153 -85 -283 -13q-116 63 -158 203q-19 67 -19 151q0 179 141 324q28 28 63 50.5t65 42.5t58 38.5t58 32.5q67 32 132.5 32t122 -32.5t95.5 -84.5q80 -105 80 -247zM1398 1637q-66 -333 -246 -695q-293 -587 -596 -954q-49 -59 -84.5 -81.5
t-59.5 -36.5q-69 -39 -95 -64q366 440 647 1013q171 351 232 643q2 8 2.5 20t9.5 26t33.5 31t52.5 33l56 32t48 33zM891 1096q0 -240 -226 -408q-124 -94 -181 -114t-114.5 -20t-116.5 32t-99 84q-78 105 -78 256q0 194 141 337q28 29 63 51.5t65 42.5t58 38t58 33
q67 32 109.5 32t88.5 -12t92.5 -46.5t77.5 -81.5q62 -96 62 -224zM2578 416q0 52 -23 116.5t-65 113.5q-93 107 -238 107q-13 0 -27 -2q-75 -107 -75 -262q0 -142 80 -252q90 -122 229 -122q19 0 39 3q80 108 80 298zM1678 416q0 52 -23 116.5t-65 113.5q-93 107 -238 107
q-13 0 -27 -2q-75 -107 -75 -262q0 -142 80 -252q90 -122 229 -122q19 0 39 3q80 108 80 298zM697 989q0 52 -23 116.5t-66 113.5q-92 107 -237 107q-14 0 -27 -3q-75 -107 -75 -261q0 -144 81 -253q90 -122 228 -122q19 0 39 4q80 108 80 298z" />
    <glyph glyph-name="guilsinglleft" unicode="&#x2039;" horiz-adv-x="738" 
d="M623 256q-11 0 -195 -136q-68 57 -116 95.5t-78.5 63t-61.5 47.5q-72 55 -112 83q22 16 52 39q53 39 103.5 72.5t76 54.5t49.5 44q26 25 66 69t63.5 62t49.5 34.5t52.5 31.5t47.5 27q-141 -162 -353 -307q232 -160 356 -280z" />
    <glyph glyph-name="guilsinglright" unicode="&#x203a;" horiz-adv-x="736" 
d="M112 707q7 0 194 136q243 -201 369 -290q-76 -56 -110.5 -80.5t-65.5 -44.5t-56.5 -41t-49.5 -44t-46 -47.5t-40.5 -44.5t-42 -38t-50 -35t-52.5 -31.5t-47 -26.5q137 159 352 307q-234 164 -355 280z" />
    <glyph glyph-name="fraction" unicode="&#x2044;" horiz-adv-x="995" 
d="M1015 1637q-82 -412 -360 -913q-318 -566 -532 -789q-31 -31 -75 -55q-86 -46 -114 -74q366 440 646 1013q169 343 233 643q2 11 2.5 19.5t7 22.5t32 32t56 35.5t59.5 34t45 31.5z" />
    <glyph glyph-name="Euro" unicode="&#x20ac;" horiz-adv-x="1675" 
d="M313 641q5 56 13 96h-262l38 31q128 105 156 105h114q117 248 382 407q261 158 539 158q106 0 179 -18.5t92.5 -27.5t19.5 -19t-18 -32t-50 -48q-80 -67 -169 -98q40 33 40 42.5t-19 18t-49 15.5t-66 12.5t-69 9.5q-67 8 -144.5 8t-170 -22t-161.5 -72
q-133 -97 -188 -334h206q79 0 162 59q-134 -176 -383 -191q0 -60 8 -100l213 -1q77 0 162 60q-65 -94 -187 -150q-64 -30 -154 -36q138 -377 547 -377q160 0 317 56q69 25 124 57q-195 -193 -501 -242q-68 -11 -162 -11t-190.5 37.5t-171.5 105.5q-157 141 -191 365h-255
q166 136 194 136h55z" />
    </font>
</defs>
</svg>
